<?xml version="1.0" standalone="no"?>
<!DOCTYPE svg PUBLIC "-//W3C//DTD SVG 1.1//EN" "http://www.w3.org/Graphics/SVG/1.1/DTD/svg11.dtd" >
<svg>
<metadata>
Created by FontForge 20120731 at Tue Jul  2 00:49:49 2019
 By www
Copyright (c) 2009 by (c) 2009 Designed by Svetoslav Simov (c) Fontfabric, Inc. All rights reserved.
</metadata>
<defs>
<font id="UniSansW01-SemiboldItalic" horiz-adv-x="638" >
  <font-face 
    font-family="UniSansW01-SemiboldItalic"
    font-weight="600"
    font-style="italic"
    font-stretch="normal"
    units-per-em="1000"
    panose-1="2 11 4 2 2 2 3 2 2 4"
    ascent="756"
    descent="-244"
    x-height="518"
    cap-height="708"
    bbox="-47 -217 1089.24 952"
    underline-thickness="50"
    underline-position="-100"
    unicode-range="U+0002-2122"
  />
<missing-glyph horiz-adv-x="260" 
 />
    <glyph glyph-name=".notdef" horiz-adv-x="260" 
 />
    <glyph glyph-name=".null" horiz-adv-x="0" 
 />
    <glyph glyph-name="uni000D" unicode="&#xd;" horiz-adv-x="260" 
 />
    <glyph glyph-name="uni0002" horiz-adv-x="0" 
 />
    <glyph glyph-name="uni0009" unicode="&#x9;" horiz-adv-x="260" 
 />
    <glyph glyph-name="uni000A" unicode="&#xa;" horiz-adv-x="0" 
 />
    <glyph glyph-name="space" unicode=" " horiz-adv-x="260" 
 />
    <glyph glyph-name="exclam" unicode="!" horiz-adv-x="288" 
d="M211 172h-112l75 533h112zM67 61q5 31 28 52t54 21t49.5 -21t13.5 -52t-28.5 -52t-54.5 -21t-49 21t-13 52z" />
    <glyph glyph-name="quotedbl" unicode="&#x22;" horiz-adv-x="341" 
d="M140 708h112l-54 -252h-93zM282 708h112l-54 -252h-93z" />
    <glyph glyph-name="numbersign" unicode="#" horiz-adv-x="704" 
d="M537 306h148l-40 -109h-158q-19 -42 -33 -74t-24 -55.5t-17 -40t-12 -28.5h-116l85 198h-101l-85 -198h-117l86 198h-125l38 109h135q11 23 19 40t18 41h-147l38 110h156q20 45 41 94t41 94h118l-82 -188h100l82 188h117l-84 -188h131l-45 -110h-134zM354 387l-35 -81
h100l35 81h-100z" />
    <glyph glyph-name="dollar" unicode="$" horiz-adv-x="582" 
d="M213 508q-4 -17 0 -29.5t13.5 -21.5t24 -15.5t32.5 -11.5l22 158q-32 -9 -58.5 -29t-33.5 -50v-1zM384 409q39 -9 75.5 -22t61.5 -37.5t36 -62.5t-1 -96q-8 -42 -30 -75t-53 -57t-69 -39t-77 -20l-14 -94h-104l14 94q-32 5 -62 18t-54.5 33.5t-43.5 48.5t-29 64l109 45
q11 -39 38 -63t58 -32l28 202q-38 9 -72 22t-58 35t-34.5 56t0.5 86q7 42 26.5 74.5t48.5 56t65.5 38t77.5 19.5l13 92h104l-13 -92q64 -10 116 -50t73 -111l-109 -46q-11 39 -37.5 63t-58.5 31zM343 114q35 8 63.5 29.5t38.5 53.5q3 20 -1.5 35.5t-15 27t-26 20t-34.5 14.5
z" />
    <glyph glyph-name="percent" unicode="%" horiz-adv-x="758" 
d="M387 523q-6 -43 -22 -77t-39 -57.5t-52 -36t-61 -12.5q-70 0 -102 47t-19 138q6 42 22 75t39 56.5t51.5 36t60.5 12.5q70 0 102 -47t20 -135zM144 -73l-82 59l594 748l83 -59zM298 523q7 51 -6 74t-42 23q-28 0 -45.5 -22.5t-25.5 -72.5q-8 -53 4 -75.5t41 -22.5
q30 0 48.5 23t25.5 73zM654 180q7 51 -6.5 74t-42.5 23q-28 0 -45.5 -22.5t-24.5 -72.5q-8 -53 3.5 -75.5t40.5 -22.5q30 0 49 23t26 73zM743 179q-6 -43 -22 -77t-39 -57.5t-52 -36t-61 -12.5q-70 0 -102 47t-19 138q6 42 21.5 75t38.5 56.5t51.5 36t60.5 12.5
q70 0 102.5 -47t20.5 -135z" />
    <glyph glyph-name="ampersand" unicode="&#x26;" horiz-adv-x="632" 
d="M459 263l55 74l91 -48l-79 -106l106 -145h-145l-39 50q-44 -43 -92.5 -67.5t-112.5 -24.5q-45 0 -83 14.5t-63.5 41t-37 64.5t-4.5 86q5 35 19.5 63t35 50.5t45.5 40t51 32.5q-20 30 -33 63t-8 74q6 40 25.5 71.5t48.5 53t64 32.5t71 11q33 0 62 -11.5t49.5 -32.5
t30.5 -50t5 -64q-5 -34 -18 -59.5t-32 -45.5t-43 -36t-49 -29zM263 313q-17 -10 -34.5 -21.5t-31.5 -25t-24 -29.5t-13 -35q-7 -48 23 -76t80 -28q35 0 66.5 19t57.5 46zM357 592q-29 0 -52.5 -18t-27.5 -47q-4 -23 8 -47t28 -44q16 8 33 17.5t30.5 21.5t23 26t11.5 31
q4 27 -11 43.5t-43 16.5z" />
    <glyph glyph-name="quotesingle" unicode="'" horiz-adv-x="203" 
d="M135 707h110l-49 -252h-97z" />
    <glyph glyph-name="parenleft" unicode="(" horiz-adv-x="273" 
d="M364 706q-39 -41 -69 -88.5t-51.5 -96.5t-35.5 -97.5t-20 -91.5q-14 -98 7.5 -190t66.5 -186l-97 -58q-59 103 -81 216.5t-8 217.5q16 109 70 222.5t137 210.5z" />
    <glyph glyph-name="parenright" unicode=")" horiz-adv-x="282" 
d="M-27 -67q38 41 68.5 88t53.5 95.5t37.5 96t20.5 91.5q14 100 -4.5 198.5t-66.5 193.5l98 59q29 -51 49 -108.5t31 -116t12.5 -116.5t-5.5 -110q-15 -109 -69 -222t-139 -211z" />
    <glyph glyph-name="asterisk" unicode="*" horiz-adv-x="439" 
d="M344 589l121 37l16 -97l-120 -35l59 -98l-87 -60l-61 100l-86 -100l-75 58l89 101l-111 36l42 97l113 -38l17 120h100z" />
    <glyph glyph-name="plus" unicode="+" horiz-adv-x="616" 
d="M91 388h204l28 198h111l-28 -198h196l-16 -112h-196l-28 -201h-111l28 201h-204z" />
    <glyph glyph-name="comma" unicode="," horiz-adv-x="266" 
d="M108 140h125l-125 -262h-111z" />
    <glyph glyph-name="hyphen" unicode="-" horiz-adv-x="345" 
d="M73 351h278l-16 -112h-278z" />
    <glyph glyph-name="period" unicode="." horiz-adv-x="237" 
d="M44 67q5 31 28 52t54 21t49.5 -21t13.5 -52t-28.5 -52t-54.5 -21t-49 21t-13 52z" />
    <glyph glyph-name="slash" unicode="/" horiz-adv-x="380" 
d="M389 743l97 -36l-399 -747l-98 37z" />
    <glyph glyph-name="zero" unicode="0" horiz-adv-x="614" 
d="M181 202q-4 -28 6.5 -47t30 -31t44.5 -17t49 -5t50 5t48.5 17t38.5 31t20 47l40 285q4 28 -6.5 47.5t-29.5 31t-44 16.5t-49 5t-50.5 -5t-49 -16.5t-38.5 -31t-20 -47.5zM295 -9q-45 0 -89 12.5t-77 38.5t-50.5 66t-9.5 94l40 285q8 55 36.5 95t69 66t88 38.5t92.5 12.5
t89 -12.5t77 -38.5t50 -66t9 -95l-40 -285q-8 -54 -36 -94t-68.5 -66t-88 -38.5t-92.5 -12.5z" />
    <glyph glyph-name="one" unicode="1" horiz-adv-x="325" 
d="M347 687l-96 -687h-111l72 513l-85 -79l-76 69l200 184h96z" />
    <glyph glyph-name="two" unicode="2" horiz-adv-x="551" 
d="M343 602q-51 1 -95.5 -27t-71.5 -74l-95 41q47 83 123 128t159 43q61 -2 103.5 -22.5t67 -52.5t32 -73t-3 -85t-37.5 -88.5t-71 -82.5l-235 -196h294l-15 -112h-460l-23 78l370 309q36 34 54.5 70.5t15.5 67t-30 52t-82 24.5z" />
    <glyph glyph-name="three" unicode="3" horiz-adv-x="599" 
d="M142 199q17 -47 58 -71t89 -24q27 0 53.5 6.5t48 19t36.5 32t19 45.5q8 57 -22 82.5t-88 24.5h-82l14 102h82q42 0 72.5 21t36.5 63q3 22 -4.5 38.5t-21.5 27.5t-33.5 16t-41.5 5q-39 0 -81 -21.5t-71 -63.5l-90 50q22 36 52 63t63 45t68.5 27.5t68.5 9.5q43 0 82.5 -12
t68 -36.5t43 -61.5t7.5 -87q-5 -35 -25.5 -70.5t-66.5 -56.5q29 -12 46.5 -30t26.5 -40t10 -46.5t-3 -50.5q-8 -54 -36 -94.5t-67.5 -67.5t-87.5 -40t-96 -13q-38 0 -74.5 10t-68 30t-56 50t-37.5 70z" />
    <glyph glyph-name="four" unicode="4" horiz-adv-x="554" 
d="M507 270h52l-14 -106h-52l-23 -162h-112l23 162h-290l-53 87l424 451h106zM427 457q10 34 17 60q6 23 11 42t6 19h-15q-20 -27 -36 -49q-14 -19 -25.5 -35.5t-13.5 -18.5l-185 -205h212z" />
    <glyph glyph-name="five" unicode="5" horiz-adv-x="601" 
d="M152 199q17 -45 56.5 -68.5t84.5 -23.5q27 0 54 6.5t49 20t37.5 33.5t19.5 47l5 38q4 27 -5 46t-27 31t-42.5 17.5t-52.5 5.5q-45 0 -83.5 -9.5t-85.5 -29.5l-64 -2l56 396h447l-16 -112h-335l-21 -147q29 8 58 13.5t60 4.5q46 0 89.5 -12.5t75.5 -38.5t48.5 -66t9.5 -96
l-6 -40q-8 -55 -36 -96.5t-68 -69t-88.5 -41t-96.5 -13.5q-37 0 -72.5 10t-66 29.5t-54.5 49.5t-38 69z" />
    <glyph glyph-name="six" unicode="6" horiz-adv-x="618" 
d="M512 526q-12 37 -48.5 54.5t-82.5 17.5q-29 0 -56.5 -6t-50.5 -19t-38.5 -32t-19.5 -44l-14 -101q17 19 38 31.5t42 19.5t41.5 9.5t37.5 2.5q49 0 94 -13.5t77 -40.5t48 -66.5t9 -92.5l-6 -41q-8 -53 -35 -92.5t-66.5 -66t-88 -40t-97.5 -13.5q-50 0 -95 13t-78 39.5
t-50 66.5t-10 93l41 293q7 53 35 93t68.5 66.5t89.5 39.5t99 13q38 0 72.5 -7.5t64 -25t52 -44.5t35.5 -66zM477 245q3 25 -6.5 44t-28 32t-44 19.5t-53.5 6.5q-29 0 -56.5 -6.5t-50.5 -19t-38.5 -32t-18.5 -44.5l-6 -39q-3 -26 7 -45t29 -31.5t45 -19t55 -6.5
q28 0 55.5 6.5t49.5 19.5t37 32t18 44z" />
    <glyph glyph-name="seven" unicode="7" horiz-adv-x="510" 
d="M96 595l16 112h442l25 -69l-443 -638h-127l411 595h-324z" />
    <glyph glyph-name="eight" unicode="8" horiz-adv-x="591" 
d="M301 97q25 0 51.5 7.5t49.5 22t39 36t20 50.5q5 33 -4 56t-27 37t-43 20.5t-53 6.5h-17q-28 0 -55 -6.5t-49 -20.5t-37 -37t-20 -56q-4 -29 6.5 -50.5t29 -36t43 -22t49.5 -7.5h17zM270 -6q-54 0 -98.5 15t-74.5 43.5t-44 71t-7 96.5q3 21 12 44.5t24 46t37 42.5t51 32
q-19 9 -30.5 24t-17 32.5t-6.5 36.5t1 35q7 52 31.5 89t59.5 60.5t77 34t85 10.5h17q43 0 82 -11t67.5 -34.5t42.5 -60.5t7 -88q-3 -17 -9 -35.5t-16.5 -36t-25.5 -31.5t-36 -22q28 -12 44.5 -30t24.5 -40t9 -47.5t-3 -50.5q-9 -54 -34.5 -96.5t-64 -71t-86.5 -43.5
t-102 -15h-17zM356 609q-22 0 -44 -6t-40 -18t-30 -29.5t-15 -39.5q-3 -25 5 -42t23.5 -27.5t36.5 -15.5t42 -5t44.5 5t44 15.5t35 27.5t17.5 42q3 22 -4.5 39.5t-22 29.5t-34 18t-41.5 6h-17z" />
    <glyph glyph-name="nine" unicode="9" horiz-adv-x="609" 
d="M140 192q23 -48 63.5 -68.5t86.5 -20.5q29 0 57 6.5t50.5 19t38 31.5t18.5 45l14 100q-14 -17 -33 -28.5t-40.5 -18.5t-43.5 -10t-41 -3q-49 0 -94 13.5t-77.5 40t-49 66t-8.5 92.5l6 42q7 53 34.5 92.5t67.5 66t88.5 40t97.5 13.5q50 0 95 -13t78 -39.5t50 -66.5t10 -93
l-42 -295q-8 -53 -36 -93t-68.5 -66.5t-89.5 -39.5t-98 -13q-38 0 -74 9.5t-66.5 29t-55 48.5t-37.5 67zM194 457q-4 -25 5.5 -44t28.5 -31.5t44.5 -19t53.5 -6.5q29 0 57 6t50.5 19t37.5 31.5t19 44.5l5 41q4 26 -6 45t-29 31.5t-45 18.5t-55 6q-28 0 -55.5 -6t-49.5 -19
t-37 -32t-19 -44z" />
    <glyph glyph-name="colon" unicode=":" horiz-adv-x="239" 
d="M96 415q5 31 28.5 51.5t54.5 20.5t49.5 -20.5t13.5 -51.5t-28.5 -52t-54.5 -21t-49.5 21t-13.5 52zM49 80q5 32 28.5 52.5t54.5 20.5t49.5 -20.5t13.5 -52.5q-5 -31 -28.5 -51.5t-54.5 -20.5t-49.5 20.5t-13.5 51.5z" />
    <glyph glyph-name="semicolon" unicode=";" horiz-adv-x="251" 
d="M91 140h134l-125 -262h-110zM99 402q5 31 28 51.5t55 20.5q31 0 48.5 -20.5t12.5 -51.5t-27.5 -52t-53.5 -21q-32 0 -50 21t-13 52z" />
    <glyph glyph-name="less" unicode="&#x3c;" horiz-adv-x="481" 
d="M473 429l-244 -131q10 -7 23 -14.5t35 -21t57.5 -35.5t91.5 -57l-18 -128l-340 217l11 77l402 221z" />
    <glyph glyph-name="equal" unicode="=" horiz-adv-x="550" 
d="M115 432h420l-15 -108h-420zM91 259h420l-15 -106h-420z" />
    <glyph glyph-name="greater" unicode="&#x3e;" horiz-adv-x="480" 
d="M128 557l341 -221l-11 -77l-403 -217l18 128l247 129l-210 129z" />
    <glyph glyph-name="question" unicode="?" horiz-adv-x="494" 
d="M88 595q49 64 108 91t116 27q44 0 83.5 -14t67.5 -41t41.5 -67.5t5.5 -92.5q-7 -48 -26.5 -86t-48 -65t-64 -44t-74.5 -23l-26 -124h-99l23 219q46 -10 85 3.5t66.5 38.5t41 57t9 60.5t-29 48t-73.5 19.5q-32 0 -68 -17.5t-69 -52.5zM140 50q4 28 26 48t51 20t46 -20
t13 -48q-4 -26 -26.5 -46t-51.5 -20t-45.5 20t-12.5 46z" />
    <glyph glyph-name="at" unicode="@" horiz-adv-x="748" 
d="M320 301q-4 -23 6.5 -41t31.5 -18q24 0 48 17t43 42.5t32.5 54.5t16.5 54q4 28 -3.5 45.5t-28.5 17.5q-31 1 -56.5 -16t-44 -42.5t-30 -56t-15.5 -57.5zM672 413q7 51 -5.5 89.5t-40.5 64.5t-68 39t-87 13q-62 0 -113.5 -23t-90.5 -60.5t-63.5 -85.5t-33.5 -98
q-11 -68 6.5 -126t61.5 -95t113 -46t159 22l30 -80q-50 -19 -88.5 -27t-71.5 -8q-92 0 -154.5 28t-99 77t-48.5 115t-1 141q10 75 47 141t92 114.5t123.5 76.5t143.5 28q71 0 128.5 -23t96 -63t56 -94.5t8.5 -117.5q-9 -62 -36 -114.5t-64.5 -91.5t-81.5 -61t-87 -22
q-20 0 -38 9t-26 30q-46 -28 -89 -27.5t-74.5 21t-48.5 57.5t-10 84q6 40 18.5 77.5t33 69.5t48 58t62.5 42q21 10 49 16t54.5 4.5t46.5 -13t25 -35.5l11 23l72 -14l-105 -304q22 1 44.5 18.5t42 45t34 60.5t19.5 65z" />
    <glyph glyph-name="A" unicode="A" 
d="M351 708h121l157 -708h-121l-44 184h-254q-12 -26 -23 -48t-21.5 -44t-21.5 -44t-23 -48h-124zM408 479l-6 112h-14l-40 -114l-82 -177h175z" />
    <glyph glyph-name="B" unicode="B" horiz-adv-x="630" 
d="M391 426q44 0 75.5 21t38.5 70q6 41 -21 60.5t-69 19.5h-160l-24 -171h160zM217 322l-30 -211h160q28 -1 53 4.5t44.5 18t32 32.5t16.5 49q8 58 -24 83t-92 24h-160zM619 513q-5 -36 -25.5 -73.5t-58.5 -60.5q27 -12 43 -30t24 -40t9 -46.5t-3 -51.5q-9 -59 -34 -99
t-61.5 -65t-83 -36t-98.5 -11h-275l99 709h276q44 0 81.5 -12t63.5 -36.5t38 -61.5t5 -86z" />
    <glyph glyph-name="C" unicode="C" horiz-adv-x="584" 
d="M94 487q8 57 37.5 99.5t72 71t93.5 43t103 14.5q39 0 76 -10t68.5 -30t56 -50.5t37.5 -71.5l-110 -51q-19 48 -59.5 72.5t-87.5 24.5q-29 0 -58.5 -7t-53.5 -21t-40 -35t-20 -49l-37 -266q-4 -28 6.5 -49t30.5 -35t47 -21t56 -7q48 0 95 24t79 72l97 -48q-26 -41 -59 -72
t-71 -51.5t-78 -30.5t-79 -10q-51 0 -97.5 14t-81 42.5t-51.5 71.5t-9 100z" />
    <glyph glyph-name="D" unicode="D" horiz-adv-x="631" 
d="M56 0l99 708h254q52 0 98 -13t79 -40.5t49 -69.5t8 -100l-38 -266q-8 -58 -35.5 -99.5t-68 -68t-90 -39t-101.5 -12.5h-254zM326 116q30 0 57.5 5.5t50 18t37 32t18.5 47.5l38 266q4 28 -5.5 48.5t-28 33.5t-44.5 19t-56 6h-139l-67 -476h139z" />
    <glyph glyph-name="E" unicode="E" horiz-adv-x="572" 
d="M604 593h-351l-26 -181h323l-16 -116h-323l-25 -180h351l-16 -116h-467l99 709h467z" />
    <glyph glyph-name="F" unicode="F" horiz-adv-x="551" 
d="M603 592h-350l-28 -199h307l-17 -116h-307l-38 -277h-116l99 708h466z" />
    <glyph glyph-name="G" unicode="G" horiz-adv-x="662" 
d="M101 492q8 57 37.5 99.5t71.5 71t93 42.5t102 14q39 0 75.5 -9t67.5 -27.5t55 -48t38 -70.5l-111 -49q-17 48 -57.5 68.5t-86.5 20.5q-29 0 -57.5 -7t-52.5 -21t-40 -35t-20 -49l-38 -271q-4 -29 6.5 -50.5t30.5 -35.5t47.5 -21t56.5 -7q30 0 59.5 7t53.5 21t41 35.5
t21 50.5l7 55h-199l16 111h314l-23 -166q-8 -58 -37.5 -101.5t-72.5 -72t-94 -42.5t-103 -14q-51 0 -98 14t-81 42.5t-51 72t-9 101.5z" />
    <glyph glyph-name="H" unicode="H" horiz-adv-x="697" 
d="M536 296h-315l-41 -296h-116l99 708h116l-42 -297h315l42 297h116l-99 -708h-116z" />
    <glyph glyph-name="I" unicode="I" horiz-adv-x="262" 
d="M149 708h115l-99 -708h-115z" />
    <glyph glyph-name="J" unicode="J" horiz-adv-x="607" 
d="M321 601l15 107h292l-69 -493q-8 -56 -37 -98.5t-70 -71t-90.5 -42.5t-98.5 -14q-44 0 -84.5 13.5t-72.5 40.5t-52 67.5t-23 94.5l119 19q1 -30 13 -53t30 -38.5t41 -23t48 -7.5q27 0 54 7t49.5 21.5t38 35.5t19.5 49l54 386h-176z" />
    <glyph glyph-name="K" unicode="K" horiz-adv-x="618" 
d="M271 708l-44 -313q78 67 133 116t95.5 86t69 63.5t53.5 47.5h143l-366 -342l269 -366h-147l-216 284l-57 -50l-32 -234h-115l99 708h115z" />
    <glyph glyph-name="L" unicode="L" horiz-adv-x="512" 
d="M493 0h-438l99 708h115l-83 -592h323z" />
    <glyph glyph-name="M" unicode="M" horiz-adv-x="797" 
d="M171 0h-115l99 708h129l130 -460l262 460h130l-99 -708h-116l45 325l49 192h-10l-83 -167l-152 -252h-91l-81 252l-35 170h-10l-7 -196z" />
    <glyph glyph-name="N" unicode="N" horiz-adv-x="689" 
d="M227 395l-55 -395h-116l99 708h122l187 -418l53 -141l8 2l4 152l57 405h116l-99 -708h-135l-184 410l-47 135l-7 -2z" />
    <glyph glyph-name="O" unicode="O" horiz-adv-x="682" 
d="M108 495q8 57 38.5 100t74.5 71.5t97.5 43t107.5 14.5t103.5 -14.5t86 -43t55 -71.5t10.5 -100l-39 -281q-8 -57 -39 -100.5t-75.5 -72t-98 -43t-107.5 -14.5t-103.5 14.5t-85.5 43t-54 72t-10 100.5zM184 214q-4 -29 7.5 -50.5t33 -35.5t51.5 -21.5t62 -7.5
q33 0 64.5 7.5t58 21.5t44 35.5t22.5 50.5l39 281q4 30 -7.5 52t-34 36t-52.5 20.5t-62 6.5t-64 -7t-58 -21t-43.5 -35.5t-21.5 -51.5z" />
    <glyph glyph-name="P" unicode="P" horiz-adv-x="616" 
d="M171 0h-114l99 708h274q61 0 104 -20t69 -53t35.5 -75t3.5 -85q-6 -44 -27 -85.5t-56 -73.5t-83.5 -51.5t-109.5 -19.5h-161zM380 351q33 0 58.5 11t44.5 28t30 39t14 44t-2 43.5t-19 38.5t-37 27.5t-55 9.5h-160l-34 -241h160z" />
    <glyph glyph-name="Q" unicode="Q" horiz-adv-x="683" 
d="M518 174q6 8 7.5 21.5t2.5 20.5l39 276q4 30 -8 51.5t-34 35.5t-52 20.5t-62 6.5t-63.5 -7t-57.5 -21t-43.5 -35.5t-21.5 -50.5l-39 -276q-5 -29 7 -50t34 -35.5t51.5 -21.5t61.5 -7q22 0 46.5 3.5t44.5 11.5l-47 65l86 56zM621 31l-96 -58l-36 49q-36 -16 -79.5 -25.5
t-84.5 -9.5q-54 0 -103.5 14.5t-86 43t-55 71.5t-10.5 100l39 276q8 57 38.5 99.5t75 71t98 43t107.5 14.5q53 0 102.5 -14.5t85.5 -43t55 -71t11 -99.5l-39 -276q-5 -35 -18 -70.5t-42 -58.5z" />
    <glyph glyph-name="R" unicode="R" horiz-adv-x="624" 
d="M610 0h-141l-174 274h-85l-38 -274h-116l99 708h274q52 0 95 -12.5t72.5 -38.5t43 -68t6.5 -100q-7 -50 -26 -87t-47.5 -62.5t-65 -40.5t-77.5 -21zM383 375q60 0 99.5 26.5t47.5 86.5q4 30 -2.5 50t-22.5 32.5t-39 17.5t-52 4h-159l-31 -217h159z" />
    <glyph glyph-name="S" unicode="S" horiz-adv-x="595" 
d="M221 520q-5 -23 5 -39.5t30 -28t46.5 -19t53.5 -12.5q45 -9 89.5 -23t77.5 -40.5t48.5 -67.5t3.5 -103q-9 -51 -38 -88t-69 -61.5t-88.5 -36.5t-96.5 -12q-41 0 -78.5 11t-69.5 32.5t-56 53.5t-37 74l113 48q16 -51 56 -78t90 -27q27 0 53 6t48 17.5t37 29t20 40.5
q6 30 -3.5 49.5t-30 32.5t-49.5 20t-61 12q-44 7 -84.5 21.5t-71 39.5t-46 62.5t-8.5 90.5q10 48 37.5 85t66.5 61.5t85 37t93 12.5q40 0 76.5 -8t67.5 -26.5t54 -47.5t35 -71l-111 -46q-16 50 -52 70.5t-85 20.5q-26 0 -51 -6t-46 -17.5t-35.5 -29t-18.5 -39.5z" />
    <glyph glyph-name="T" unicode="T" horiz-adv-x="551" 
d="M635 709l-16 -116h-215l-83 -593h-116l83 593h-215l16 116h546z" />
    <glyph glyph-name="U" unicode="U" horiz-adv-x="684" 
d="M268 708l-69 -488q-4 -30 6.5 -52t30.5 -36.5t47.5 -21.5t56.5 -7q30 0 59 7t53.5 21.5t41 36.5t20.5 52l69 488h116l-69 -488q-8 -58 -37.5 -101.5t-72.5 -72.5t-94 -43.5t-102 -14.5t-98 14.5t-81.5 43.5t-52 72.5t-9.5 101.5l69 488h116z" />
    <glyph glyph-name="V" unicode="V" horiz-adv-x="613" 
d="M292 259q-1 0 1.5 -21t5.5 -46l8 -66h10l49 135l221 448h122l-354 -708h-122l-157 708h123z" />
    <glyph glyph-name="W" unicode="W" horiz-adv-x="924" 
d="M468 347l-157 -347h-123l-106 708h120l63 -443q-1 0 -0.5 -20.5t1.5 -45.5q1 -29 1 -66h9l41 137q22 49 41.5 89.5t38.5 79t38.5 78.5t40.5 87h97l63 -336q-1 0 1 -21t4 -46l6 -66h9l35 132l186 441h119l-304 -708h-123l-64 346l-1 89h-7q-9 -25 -15 -44
q-5 -17 -10 -30.5t-4 -13.5z" />
    <glyph glyph-name="X" unicode="X" horiz-adv-x="589" 
d="M397 353q20 -38 41 -77.5t44 -79.5q12 -21 26.5 -47t29 -52.5t28 -51.5t24.5 -45h-141l-135 263l-207 -263h-142l291 353l-190 355h140l134 -266l163 212l45 54h140z" />
    <glyph glyph-name="Y" unicode="Y" horiz-adv-x="580" 
d="M377 275l-38 -275h-116l38 275l-185 433h133l126 -322l215 322h135z" />
    <glyph glyph-name="Z" unicode="Z" horiz-adv-x="563" 
d="M100 595l16 113h494l24 -75l-467 -522h380l-15 -111h-505l-21 76l466 519h-372z" />
    <glyph glyph-name="bracketleft" unicode="[" horiz-adv-x="256" 
d="M324 622h-80l-89 -634h80l-15 -105h-193l119 845h193z" />
    <glyph glyph-name="backslash" unicode="\" horiz-adv-x="370" 
d="M368 -4l-109 -35l-188 729l110 36z" />
    <glyph glyph-name="bracketright" unicode="]" horiz-adv-x="255" 
d="M-1 -14h78l89 640h-79l15 103h193l-119 -845h-192z" />
    <glyph glyph-name="asciicircum" unicode="^" horiz-adv-x="594" 
d="M345 706h71l187 -282h-137l-104 153l-143 -153h-135z" />
    <glyph glyph-name="underscore" unicode="_" horiz-adv-x="523" 
d="M1 33h502l-15 -110h-501z" />
    <glyph glyph-name="grave" unicode="`" horiz-adv-x="257" 
d="M298 533h-120l-113 175h149z" />
    <glyph glyph-name="a" unicode="a" horiz-adv-x="505" 
d="M348 0l-8 45q-29 -27 -63.5 -39.5t-68.5 -12t-65 13t-53.5 35.5t-33.5 55.5t-5 73.5l24 172q7 51 30 85.5t56 56t73.5 30.5t82.5 9q48 0 97.5 -13t88.5 -33l-66 -478h-89zM386 413q-22 12 -54.5 15.5t-64 -4t-55.5 -27t-28 -53.5l-24 -173q-5 -36 15 -53t51 -20.5
t64.5 5.5t55.5 26z" />
    <glyph glyph-name="b" unicode="b" horiz-adv-x="501" 
d="M245 709l-29 -204q47 21 99.5 20.5t95 -21t67 -60.5t15.5 -97l-27 -191q-12 -53 -38 -88t-62 -55t-78 -26.5t-85.5 -3.5t-86 13.5t-77.5 25.5l96 687h110zM158 88q21 -10 52 -13.5t61.5 3.5t54.5 25.5t30 52.5l28 196q1 31 -17.5 50t-46 25.5t-60 2.5t-57.5 -19z" />
    <glyph glyph-name="c" unicode="c" horiz-adv-x="453" 
d="M50 171l24 175q6 45 28.5 78.5t54.5 55.5t70 33t76 11q30 0 60.5 -7.5t55.5 -23.5t43 -42t23 -63l-105 -38q-5 36 -33 52t-61.5 14.5t-63 -19.5t-38.5 -50l-25 -177q0 -21 11.5 -36.5t29.5 -24t40.5 -9.5t44.5 6t40.5 22t28.5 39l97 -38q-16 -37 -41 -63t-55 -42
t-63 -23.5t-63 -7.5q-38 0 -73 11t-60.5 33t-38.5 55.5t-7 78.5z" />
    <glyph glyph-name="d" unicode="d" horiz-adv-x="511" 
d="M543 709l-96 -687q-40 -15 -85.5 -25.5t-90 -13.5t-85 3.5t-70.5 26.5t-46.5 55t-13.5 88l27 191q8 57 43.5 97t83.5 60.5t100.5 21t93.5 -20.5l29 204h110zM391 411q-21 15 -51.5 19t-60.5 -2.5t-54 -25.5t-31 -50l-28 -196q-3 -34 16 -52.5t47.5 -25.5t60.5 -3.5
t56 13.5z" />
    <glyph glyph-name="e" unicode="e" horiz-adv-x="493" 
d="M426 90q-40 -50 -92 -74t-103 -24q-38 0 -72.5 11.5t-60 34t-38 56t-6.5 78.5l24 171q6 46 28.5 80.5t54.5 57.5t70 34.5t77 11.5t73.5 -11.5t60 -34t37.5 -56.5t6 -79q-5 -36 -22.5 -64.5t-43.5 -49t-57.5 -33t-65.5 -16t-67.5 1t-62.5 18.5l-4 -31q-5 -35 15.5 -55.5
t52 -25t67 8t59.5 42.5zM179 292q20 -6 44.5 -12t47.5 -6q19 0 37 4t32.5 13t24 22.5t12.5 32.5t-3.5 34t-18.5 25t-28 15t-34 5t-36 -5t-33 -15.5t-25 -25.5t-13 -35z" />
    <glyph glyph-name="f" unicode="f" horiz-adv-x="270" 
d="M-13 -106q27 20 35 45.5t10 42.5l77 550q6 45 27.5 78.5t53.5 55.5t72.5 33.5t85.5 11.5l-15 -108q-46 0 -78 -18.5t-37 -52.5l-10 -73h99l-15 -108h-99l-52 -369q-14 -100 -112 -156z" />
    <glyph glyph-name="g" unicode="g" horiz-adv-x="501" 
d="M97 -31q19 -31 55.5 -48.5t73.5 -16t67.5 26.5t37.5 79q-51 -20 -103.5 -18.5t-93.5 22.5t-64 60.5t-15 96.5l25 179q7 51 33 86.5t63 57.5t81.5 31t89 6.5t85.5 -16t70 -36.5l-67 -479q-8 -58 -37 -97t-68.5 -61.5t-86 -29t-89.5 2.5t-78.5 32t-53.5 59zM383 410
q-18 14 -48.5 19t-61 -1t-54.5 -25t-29 -53l-26 -180q-3 -32 16 -50t47 -24t60 -0.5t55 20.5z" />
    <glyph glyph-name="h" unicode="h" horiz-adv-x="528" 
d="M255 708l-29 -208q48 19 100.5 20t93.5 -18.5t64.5 -59.5t14.5 -103l-47 -339h-109l47 340q5 34 -13.5 52.5t-47 24t-61.5 0t-57 -19.5l-55 -397h-110l99 708h110z" />
    <glyph glyph-name="i" unicode="i" horiz-adv-x="215" 
d="M119 639q5 30 27.5 50t51.5 20q31 0 48 -20t12 -50q-4 -29 -26.5 -49.5t-53.5 -20.5q-29 0 -46 20.5t-13 49.5zM228 519l-72 -519h-110l72 519h110z" />
    <glyph glyph-name="j" unicode="j" horiz-adv-x="233" 
d="M121 636q5 30 28 50t52 20q30 0 47.5 -20t12.5 -50q-5 -29 -27.5 -49.5t-52.5 -20.5q-29 0 -47 20.5t-13 49.5zM-33 -74q23 0 37.5 5.5t23.5 15t13 23t6 29.5l73 520h110l-73 -520q-11 -83 -60 -129.5t-144 -46.5z" />
    <glyph glyph-name="k" unicode="k" horiz-adv-x="478" 
d="M255 708l-56 -399l215 209h138l-249 -239l176 -279h-129l-134 212l-35 -31l-25 -181h-110l99 708h110z" />
    <glyph glyph-name="l" unicode="l" horiz-adv-x="261" 
d="M241 -4q-97 0 -142 47.5t-33 130.5l75 534h110l-75 -534q-5 -32 13.5 -53.5t65.5 -21.5z" />
    <glyph glyph-name="m" unicode="m" horiz-adv-x="793" 
d="M122 466q37 24 85.5 39t95.5 15.5t86.5 -16t57.5 -55.5q24 29 58.5 46t72 21.5t74 -4.5t64 -30t42.5 -55t8 -80l-48 -347h-109l48 343q5 23 -5 38t-28 22.5t-40.5 7t-43 -8t-35.5 -21.5t-18 -34l-48 -347h-108l49 349q4 27 -11.5 43.5t-40 22.5t-54 1.5t-54.5 -19.5
l-55 -397h-108z" />
    <glyph glyph-name="n" unicode="n" horiz-adv-x="528" 
d="M115 484q39 18 85 29t91 12.5t86 -8t70.5 -31.5t44.5 -57.5t8 -86.5l-48 -342h-109l47 341q3 33 -15.5 52t-47 26t-60 3t-54.5 -17l-56 -405h-110z" />
    <glyph glyph-name="o" unicode="o" horiz-adv-x="502" 
d="M297 423q-17 0 -34.5 -4.5t-32.5 -13.5t-25 -22.5t-13 -31.5l-26 -181q-2 -18 4.5 -32.5t18.5 -24.5t28.5 -15t33.5 -5q16 0 33.5 5t32 15t25 24.5t12.5 32.5l26 181q3 18 -4 31.5t-19 22.5t-28 13.5t-32 4.5zM82 351q6 45 28.5 78t54.5 55.5t70.5 34t76.5 11.5
q37 0 72 -11.5t60.5 -34t38.5 -55.5t7 -78l-26 -181q-6 -45 -28.5 -78.5t-54.5 -56t-70 -33.5t-75 -11q-38 0 -73.5 11t-61 33.5t-38.5 56t-7 78.5z" />
    <glyph glyph-name="p" unicode="p" horiz-adv-x="502" 
d="M105 487q39 16 85 27.5t92 14t87.5 -5t72 -28.5t45.5 -57t7 -90l-25 -178q-8 -57 -43.5 -96t-83 -58.5t-100 -20t-94.5 18.5l-25 -183h-110zM161 105q26 -9 57.5 -12t60.5 4t51 24t29 49l26 180q4 34 -13 53t-44.5 26t-61 3t-61.5 -16z" />
    <glyph glyph-name="q" unicode="q" horiz-adv-x="504" 
d="M415 -169h-110l25 183q-47 -19 -99 -18.5t-94 20t-67 58.5t-17 96l25 178q8 54 33 90t61 57t80 28.5t89 5t88.5 -13.5t77.5 -28zM387 416q-25 12 -57.5 16t-62 -3t-52 -26t-26.5 -53l-26 -180q-1 -32 16.5 -49t44.5 -24t59 -4t60 12z" />
    <glyph glyph-name="r" unicode="r" horiz-adv-x="323" 
d="M265 518q8 2 22.5 3t25.5 1q13 0 27 -1t31 -5l-14 -97q-20 6 -46 5t-50 -10.5t-41.5 -27.5t-20.5 -44l-48 -342h-110l48 344q8 56 40.5 95.5t77.5 60.5q12 6 25 10t27 7q2 0 3 0.5t3 0.5z" />
    <glyph glyph-name="s" unicode="s" horiz-adv-x="425" 
d="M110 166q15 -35 45 -53.5t61 -20.5t56.5 12t31.5 46q2 14 -4.5 23.5t-17.5 16t-24.5 10.5t-26.5 7q-27 5 -57.5 14.5t-56 27t-40 46t-8.5 72.5q6 43 28 73t52.5 49t66 27.5t68.5 8.5q42 0 84 -18t75 -56l-76 -72q-18 21 -48 32.5t-59 11.5t-52 -11.5t-29 -35.5
q-4 -17 3 -29t20 -19.5t29.5 -12t32.5 -7.5q30 -5 59 -14.5t51 -27.5t33 -45.5t6 -68.5q-7 -50 -35 -85t-67 -54t-84 -23t-86 8.5t-74 41t-47 73.5z" />
    <glyph glyph-name="t" unicode="t" horiz-adv-x="289" 
d="M262 -5q-47 -7 -86.5 -0.5t-67.5 28.5t-40.5 59.5t-4.5 93.5l75 532h109l-27 -190h99l-15 -110h-99l-33 -231q-4 -31 3 -48.5t22 -26t35 -10.5t43 -2z" />
    <glyph glyph-name="u" unicode="u" horiz-adv-x="512" 
d="M451 33q-45 -19 -93.5 -30t-93.5 -12.5t-84.5 7t-67.5 30t-41.5 56.5t-6.5 86l49 348h110l-49 -350q-3 -32 14.5 -51t45 -26.5t60 -4t58.5 16.5l58 415h109z" />
    <glyph glyph-name="v" unicode="v" horiz-adv-x="467" 
d="M240 113l33 103l143 302h117l-256 -518h-113l-111 518h116l62 -302l2 -103h7z" />
    <glyph glyph-name="w" unicode="w" horiz-adv-x="700" 
d="M262 0h-115l-84 518h114l41 -294l-3 -105h7q2 9 6.5 26t9 34.5t7.5 30.5t3 14l103 294h109l27 -293l-5 -104h8l22 104l124 293h113l-227 -518h-115l-20 228v124h-6l-35 -125z" />
    <glyph glyph-name="x" unicode="x" horiz-adv-x="473" 
d="M532 518l-205 -259q16 -30 33 -63t34 -67l33.5 -67t33.5 -62h-127l-85 173q-7 -9 -15.5 -20t-23 -30t-37.5 -48.5t-59 -74.5h-128l212 259q-16 30 -34 63t-36.5 67t-36 67t-33.5 62h128l87 -174q34 42 68 87.5t65 86.5h126z" />
    <glyph glyph-name="y" unicode="y" horiz-adv-x="518" 
d="M522 518l-72 -518q-8 -58 -37.5 -97t-70.5 -61.5t-88.5 -29t-91.5 2.5t-80.5 32t-54.5 59l75 63q13 -21 35.5 -35t49 -20.5t54 -4.5t50 13.5t38 33t17.5 54.5q-51 -20 -105 -18.5t-97 22.5t-67.5 60.5t-16.5 96.5l48 347h110l-49 -348q-3 -32 17.5 -50t50.5 -24
t63.5 -0.5t56.5 20.5l56 402h109z" />
    <glyph glyph-name="z" unicode="z" horiz-adv-x="436" 
d="M68 414l14 104h354l33 -66l-306 -346h259l-14 -106h-369l-36 65l310 349h-245z" />
    <glyph glyph-name="braceleft" unicode="{" horiz-adv-x="287" 
d="M354 626h-48q-15 0 -19.5 -10.5t-6.5 -29.5l-20 -142q-6 -50 -30.5 -87.5t-52.5 -50.5q26 -17 39 -52.5t5 -86.5l-20 -145q-6 -36 10 -36h54l-15 -102h-61q-36 0 -58 9.5t-33 27t-13 42.5t2 57l18 129q3 20 3 39t-5 33.5t-16 23.5t-29 9l15 103q18 0 31.5 9t22.5 24
t14.5 34t8.5 39l18 129q9 63 42 100t107 37h52z" />
    <glyph glyph-name="bar" unicode="|" horiz-adv-x="232" 
d="M265 727l-125 -884h-110l125 884h110z" />
    <glyph glyph-name="braceright" unicode="}" horiz-adv-x="275" 
d="M100 729h47q45 0 70.5 -9.5t37 -27.5t11.5 -43.5t-4 -56.5l-18 -129q-3 -20 -3 -39t5 -34t16 -24t30 -9l-15 -103q-19 0 -32.5 -9t-22.5 -23.5t-14.5 -33.5t-8.5 -39l-18 -129q-4 -32 -13 -57t-26.5 -42.5t-45.5 -27t-70 -9.5h-44l15 102h43q14 0 20.5 9t9.5 27l20 145
q6 50 28.5 88t53.5 52q-26 8 -38.5 47t-4.5 90l20 142q2 19 0.5 29.5t-18.5 10.5h-46z" />
    <glyph glyph-name="asciitilde" unicode="~" horiz-adv-x="491" 
d="M482 304q-26 -37 -61 -63.5t-83 -26.5q-29 0 -52.5 15.5t-44.5 30.5q-14 11 -25 15t-21.5 1t-21.5 -13t-25 -26l-67 65q26 32 59.5 56t76.5 24q34 0 58 -13.5t41 -27.5q15 -14 26.5 -18t22 0t22 15.5t27.5 29.5z" />
    <glyph glyph-name="uni00A0" unicode="&#xa0;" horiz-adv-x="260" 
 />
    <glyph glyph-name="exclamdown" unicode="&#xa1;" horiz-adv-x="278" 
d="M118 334h112l-74 -531h-112zM262 442q-5 -32 -28.5 -52.5t-54.5 -20.5q-32 0 -49 20.5t-12 52.5q4 31 27 51.5t55 20.5q31 0 48.5 -20.5t13.5 -51.5z" />
    <glyph glyph-name="cent" unicode="&#xa2;" horiz-adv-x="460" 
d="M277 598h74l-11 -77q25 -4 49.5 -13.5t44 -25.5t33 -39.5t18.5 -54.5l-105 -38q-5 26 -20 41t-36 21l-43 -308q23 7 42.5 22t30.5 41l97 -38q-14 -32 -34.5 -55t-45 -39.5t-51.5 -26t-54 -12.5l-10 -72h-74l10 72q-32 4 -60.5 17t-48.5 35t-29.5 52.5t-3.5 70.5l24 175
q6 39 24 70t44 52.5t58 34.5t66 18zM159 170q0 -23 13.5 -39t35.5 -24l42 303q-23 -8 -41 -24t-25 -39z" />
    <glyph glyph-name="sterling" unicode="&#xa3;" horiz-adv-x="493" 
d="M27 105h92l28 200h-92l15 102h92l11 77q4 34 19 72t43.5 69t71 51.5t102.5 20.5q41 0 77 -17t59 -56l-75 -68q-22 28 -52 34t-58 -5t-49.5 -36t-26.5 -59l-11 -83h145l-15 -102h-145l-28 -200h242l-14 -105h-445z" />
    <glyph glyph-name="currency" unicode="&#xa4;" horiz-adv-x="561" 
d="M87 206q-33 59 -22 137q5 37 20.5 72t39.5 64l-11 15l-32 35l82 77l45 -54q64 39 141 39q75 0 129 -39l62 54l59 -77l-58 -49q16 -29 22 -64t1 -73q-12 -80 -62 -137l12 -14l33 -35l-81 -77l-47 54q-35 -21 -68.5 -30t-71.5 -9q-35 0 -68.5 10t-61.5 29l-18 -18
q-5 -5 -12 -11t-14 -11q-8 -6 -16 -13l-60 76zM173 342q-4 -29 3.5 -55t24 -45.5t40.5 -30.5t53 -11t56 11t49 30.5t37 45.5t19 55q4 30 -3.5 56t-24 45.5t-40.5 31t-53 11.5t-56 -11.5t-49 -31t-37 -45.5t-19 -56z" />
    <glyph glyph-name="yen" unicode="&#xa5;" horiz-adv-x="526" 
d="M388 356h100l-34 -91h-117l-6 -38h139l-33 -87h-118l-19 -140h-112l19 140h-143l33 87h122l6 38h-141l35 91h82q-33 74 -70 160t-82 193h130l121 -307q51 75 104 154t103 153h132z" />
    <glyph glyph-name="brokenbar" unicode="&#xa6;" horiz-adv-x="218" 
d="M252 684l-52 -369h-111l52 369h111zM190 242l-52 -370h-111l52 370h111z" />
    <glyph glyph-name="section" unicode="&#xa7;" horiz-adv-x="469" 
d="M299 212q17 11 35 27.5t20 31.5q1 11 -3 20.5t-11.5 17.5t-17 14.5t-17.5 11.5l-52 31q-23 -8 -44.5 -22.5t-24.5 -34.5q-4 -24 8.5 -36t30.5 -22zM121 39q10 -32 38 -48t58.5 -16t55.5 17t30 50q4 27 -13.5 45.5t-45 34t-60 30.5t-59.5 35.5t-42.5 49t-9.5 70.5
q5 41 28.5 70t54.5 49q-17 20 -26.5 47t-4.5 60q6 45 31 80t59.5 57.5t75.5 31.5t79.5 3t71 -29t50.5 -64l-96 -54q-12 32 -37 41.5t-50.5 3t-46 -25.5t-24.5 -44t13 -43t43.5 -33t58.5 -30.5t58 -36t41 -48t10 -66.5q-5 -38 -24 -68t-49 -51q17 -21 25.5 -48t4.5 -59
q-9 -56 -37.5 -94.5t-68 -60t-85 -26.5t-86.5 6.5t-73.5 40t-46.5 73.5z" />
    <glyph glyph-name="dieresis" unicode="&#xa8;" horiz-adv-x="340" 
d="M279 643q4 29 25 48t50 19t45.5 -19t12.5 -48q-4 -28 -25.5 -47t-50.5 -19t-45 19t-12 47zM78 643q4 29 25.5 48t49.5 19t44.5 -19t12.5 -48q-4 -28 -25.5 -47t-49.5 -19t-44.5 19t-12.5 47z" />
    <glyph glyph-name="copyright" unicode="&#xa9;" horiz-adv-x="773" 
d="M68 351q10 74 48 139.5t93.5 114t125 77t143.5 28.5t135 -28.5t103 -77t61 -114t9 -139.5q-11 -74 -48.5 -139.5t-93 -114.5t-124.5 -77t-143 -28t-135.5 28t-103.5 77t-61.5 114.5t-8.5 139.5zM159 351q-8 -56 6 -104.5t45.5 -85.5t77.5 -58t102 -21q55 0 106.5 21
t93 58t69.5 85.5t36 104.5t-6.5 105t-45.5 85t-77 57t-101 21q-56 0 -108 -21t-93 -57t-69 -85t-36 -105zM226 293l15 111q6 43 27.5 74.5t51.5 52.5t66.5 31.5t72.5 10.5q29 0 57.5 -7t52.5 -22.5t41 -40t22 -59.5l-100 -36q-5 34 -31.5 49.5t-58 14t-60 -19t-36.5 -47.5
l-15 -113q-1 -30 22.5 -47.5t54.5 -19t61.5 13.5t45.5 50l92 -36q-15 -35 -39 -59.5t-52.5 -40t-59.5 -22.5t-60 -7q-36 0 -69.5 10.5t-57.5 31.5t-36.5 52.5t-6.5 74.5z" />
    <glyph glyph-name="ordfeminine" unicode="&#xaa;" horiz-adv-x="342" 
d="M103 626q36 45 88 63.5t98.5 10.5t76 -41.5t21.5 -91.5l-33 -233q-50 -13 -103.5 -19t-96 3.5t-67 39.5t-16.5 88q6 44 30 69.5t54.5 37t63.5 10.5t58 -9q4 27 -8.5 41.5t-33 17.5t-45 -6t-44.5 -28zM267 482q-12 5 -27 6t-29 -3t-25 -13t-14 -24q-2 -18 5.5 -29
t20.5 -15.5t28.5 -4t29.5 3.5z" />
    <glyph glyph-name="guillemotleft" unicode="&#xab;" horiz-adv-x="454" 
d="M53 291l179 220l87 -57l-134 -163l88 -164l-103 -56zM233 291l178 220l88 -57l-134 -164l3 -6t10.5 -19t25.5 -47t49 -90l-104 -57z" />
    <glyph glyph-name="logicalnot" unicode="&#xac;" horiz-adv-x="567" 
d="M439 304h-373l16 109h482l-37 -263h-109z" />
    <glyph glyph-name="uni00AD" unicode="&#xad;" horiz-adv-x="333" 
d="M60 300h278l-16 -112h-278z" />
    <glyph glyph-name="registered" unicode="&#xae;" horiz-adv-x="781" 
d="M354 169h-98l51 358h162q40 0 66.5 -14t40 -36.5t14.5 -49.5t-8.5 -53t-30 -48t-50.5 -33l68 -124h-116l-61 117h-21zM382 366h61q20 0 31.5 12t13 26t-7 26t-27.5 12h-60zM68 351q10 74 48 139.5t93.5 114t125 77t143.5 28.5t135 -28.5t103 -77t61 -114t9 -139.5
q-11 -74 -48.5 -139.5t-93 -114.5t-124.5 -77t-143 -28t-135.5 28t-103.5 77t-61.5 114.5t-8.5 139.5zM159 351q-8 -56 6 -104.5t45.5 -85.5t77.5 -58t102 -21q55 0 106.5 21t93 58t69.5 85.5t36 104.5t-6.5 105t-45.5 85t-77 57t-101 21q-56 0 -108 -21t-93 -57t-69 -85
t-36 -105z" />
    <glyph glyph-name="macron" unicode="&#xaf;" horiz-adv-x="305" 
d="M374 566h-293l16 111h293z" />
    <glyph glyph-name="degree" unicode="&#xb0;" horiz-adv-x="349" 
d="M221 413q-31 0 -56.5 11.5t-43 32t-25.5 47.5t-4 58t19.5 58t38.5 47t52 31.5t60 11.5q30 0 55.5 -11.5t43 -31.5t25 -47t3.5 -58q-4 -30 -19.5 -57.5t-38.5 -47.5t-51.5 -32t-58.5 -12zM234 508q22 0 39.5 15.5t20.5 37.5t-10 38t-35 16t-40.5 -16t-21.5 -38t11 -37.5
t36 -15.5z" />
    <glyph glyph-name="plusminus" unicode="&#xb1;" horiz-adv-x="567" 
d="M114 466h161l22 154h111l-22 -154h165l-15 -110h-165l-22 -154h-111l22 154h-161zM69 161h440l-15 -109h-440z" />
    <glyph glyph-name="uni00B2" unicode="&#xb2;" horiz-adv-x="357" 
d="M89 608q34 58 79 81t96 23q54 0 88.5 -26t45.5 -64.5t-4.5 -83.5t-61.5 -83l-111 -89h157l-14 -101h-291l-20 71l214 186q14 10 22 25.5t7.5 30t-11.5 24.5t-35 9q-26 -1 -46.5 -16t-33.5 -32z" />
    <glyph glyph-name="uni00B3" unicode="&#xb3;" horiz-adv-x="347" 
d="M151 417q8 -23 24.5 -32t33.5 -10q15 -2 33.5 3.5t30.5 17.5l-2 -2q9 11 10 24q2 17 -9 31.5t-36 12.5h-42l12 79h43q20 3 29.5 14t8.5 23.5t-11 22.5t-29 10q-17 0 -31.5 -7t-24.5 -16l-9 -11l-80 44q17 25 36.5 41.5t39.5 26.5t39 14.5t36 5.5q38 2 71 -11t51 -41
q10 -16 13.5 -37t-1 -42t-18 -39.5t-37.5 -29.5q29 -12 41.5 -34.5t11.5 -49t-13.5 -53.5t-34.5 -48q-30 -29 -71 -41.5t-77 -11.5q-42 2 -74.5 25.5t-48.5 65.5l-3 13z" />
    <glyph glyph-name="acute" unicode="&#xb4;" horiz-adv-x="224" 
d="M196 709h149l-161 -175h-121z" />
    <glyph glyph-name="mu" unicode="&#xb5;" horiz-adv-x="504" 
d="M446 -2h-104l-1 40q-17 -23 -45 -35.5t-57 -13t-53 12t-34 39.5l-34 -242h-112l101 717h113l-45 -318q-4 -30 7 -50.5t30 -31t42.5 -10.5t45.5 11t39 33.5t22 56.5l43 309h113z" />
    <glyph glyph-name="paragraph" unicode="&#xb6;" horiz-adv-x="598" 
d="M274 237q-79 0 -127.5 35t-67.5 87t-10.5 113.5t42.5 113.5t93 87t140 35h296l-115 -820h-112l101 717h-75l-101 -717h-113z" />
    <glyph glyph-name="periodcentered" unicode="&#xb7;" horiz-adv-x="269" 
d="M93 311q5 31 28 52t55 21q31 0 48.5 -21t12.5 -52t-27.5 -51.5t-53.5 -20.5q-32 0 -50 20.5t-13 51.5z" />
    <glyph glyph-name="cedilla" unicode="&#xb8;" horiz-adv-x="251" 
d="M88 -96q13 -2 21 8q4 5 3.5 12.5t-8.5 14.5t-26.5 13t-49.5 8l72 101h92l-31 -53q25 -10 40 -33t9 -54q-5 -26 -18 -45.5t-31.5 -32t-40 -19t-41.5 -6.5q-22 0 -48 9t-55 23l34 67z" />
    <glyph glyph-name="uni00B9" unicode="&#xb9;" horiz-adv-x="282" 
d="M181 541l-49 -41l-48 62l135 128h87l-61 -435h-105z" />
    <glyph glyph-name="ordmasculine" unicode="&#xba;" horiz-adv-x="373" 
d="M220 309q-30 0 -58 9t-49 26.5t-32 44t-6 61.5l14 102q5 36 23 62.5t44 44t57 26t61 8.5t58.5 -8.5t49.5 -26t32 -44t6 -62.5l-14 -102q-5 -35 -23 -61.5t-44.5 -44t-57.5 -26.5t-61 -9zM180 450q-2 -21 15.5 -31.5t40 -10.5t42 10.5t22.5 31.5l14 102q2 23 -15 34.5
t-39.5 11.5t-42.5 -11.5t-23 -34.5z" />
    <glyph glyph-name="guillemotright" unicode="&#xbb;" horiz-adv-x="449" 
d="M291 291l-179 -220l-88 56l136 164l-88 163l102 57zM471 291l-179 -220l-87 57l134 163l-88 164l103 56z" />
    <glyph glyph-name="onequarter" unicode="&#xbc;" horiz-adv-x="711" 
d="M589 727l85 -55l-535 -713l-85 55zM162 562l-48 -41l-48 62l135 128h87l-61 -435h-105zM665 193h36l-13 -93h-36l-14 -100h-110l14 100h-163l-40 77l268 280h95zM556 192l18 108l-104 -108h86z" />
    <glyph glyph-name="onehalf" unicode="&#xbd;" horiz-adv-x="780" 
d="M592 727l83 -55l-535 -713l-82 56zM162 562l-48 -41l-48 62l135 128h87l-61 -435h-105zM468 343q34 58 78.5 81t95.5 23q54 0 88.5 -26t45.5 -64.5t-4 -83.5t-61 -83l-111 -89h157l-14 -101h-291l-21 71l215 186q14 10 22 25.5t7 30t-12 24.5t-34 9q-26 -1 -47 -16
t-34 -32z" />
    <glyph glyph-name="threequarters" unicode="&#xbe;" horiz-adv-x="783" 
d="M667 727l83 -55l-535 -713l-83 56zM746 193h36l-13 -93h-36l-14 -100h-110l14 100h-163l-40 77l268 280h95zM637 192l18 108l-104 -108h86zM139 417q8 -23 24.5 -32t33.5 -10q15 -2 33.5 3.5t30.5 17.5l-2 -2q9 11 10 24q2 17 -9 31.5t-36 12.5h-42l12 79h43
q20 3 29.5 14t8.5 23.5t-11 22.5t-29 10q-17 0 -31.5 -7t-24.5 -16l-9 -11l-80 44q17 25 36.5 41.5t39.5 26.5t39 14.5t36 5.5q38 2 71 -11t51 -41q10 -16 13.5 -37t-1 -42t-18 -39.5t-37.5 -29.5q29 -12 41.5 -34.5t11.5 -49t-13.5 -53.5t-34.5 -48q-30 -29 -71 -41.5
t-77 -11.5q-42 2 -74.5 25.5t-48.5 65.5l-3 13z" />
    <glyph glyph-name="questiondown" unicode="&#xbf;" horiz-adv-x="475" 
d="M390 458q-4 -29 -26.5 -48.5t-51.5 -19.5t-45.5 19.5t-12.5 48.5t26 48.5t51 19.5t46 -19.5t13 -48.5zM439 -85q-49 -64 -108 -91t-116 -27q-44 0 -83.5 14t-67.5 41t-41.5 67t-6.5 93q7 48 27 86t48.5 65t64 44t74.5 23l25 124h99l-23 -219q-46 9 -85 -4t-66 -38
t-40.5 -57t-9 -60.5t29 -48t73.5 -19.5q32 0 68 17.5t68 52.5z" />
    <glyph glyph-name="Agrave" unicode="&#xc0;" 
d="M351 708h121l157 -708h-121l-44 184h-254q-12 -26 -23 -48t-21.5 -44t-21.5 -44t-23 -48h-124zM408 479l-6 112h-14l-40 -114l-82 -177h175zM468 737h-112l-106 160h139z" />
    <glyph glyph-name="Aacute" unicode="&#xc1;" 
d="M351 708h121l157 -708h-121l-44 184h-254q-12 -26 -23 -48t-21.5 -44t-21.5 -44t-23 -48h-124zM408 479l-6 112h-14l-40 -114l-82 -177h175zM488 907h141l-153 -166h-114z" />
    <glyph glyph-name="Acircumflex" unicode="&#xc2;" 
d="M351 708h121l157 -708h-121l-44 184h-254q-12 -26 -23 -48t-21.5 -44t-21.5 -44t-23 -48h-124zM408 479l-6 112h-14l-40 -114l-82 -177h175zM393 882h81l117 -151h-127l-44 53l-57 -53h-129z" />
    <glyph glyph-name="Atilde" unicode="&#xc3;" 
d="M351 708h121l157 -708h-121l-44 184h-254q-12 -26 -23 -48t-21.5 -44t-21.5 -44t-23 -48h-124zM408 479l-6 112h-14l-40 -114l-82 -177h175zM274 763q18 54 50.5 81t67.5 27q12 0 23.5 -4.5t22.5 -9.5q9 -6 17 -10t15.5 -3.5t14 6.5t14.5 21l71 -24q-19 -57 -49.5 -80.5
t-64.5 -23.5q-14 0 -27 5t-25 10q-21 11 -34.5 8.5t-27.5 -30.5z" />
    <glyph glyph-name="Adieresis" unicode="&#xc4;" 
d="M351 708h121l157 -708h-121l-44 184h-254q-12 -26 -23 -48t-21.5 -44t-21.5 -44t-23 -48h-124zM408 479l-6 112h-14l-40 -114l-82 -177h175zM465 803q5 29 26 48t50 19t45.5 -19t11.5 -48q-4 -28 -25.5 -47t-50.5 -19t-45 19t-12 47zM264 803q5 29 26.5 48t49.5 19
t44.5 -19t11.5 -48q-4 -28 -25.5 -47t-49.5 -19t-44.5 19t-12.5 47z" />
    <glyph glyph-name="Aring" unicode="&#xc5;" 
d="M351 708h121l157 -708h-121l-44 184h-254q-12 -26 -23 -48t-21.5 -44t-21.5 -44t-23 -48h-124zM408 479l-6 112h-14l-40 -114l-82 -177h175zM318 839q3 23 15 43.5t29.5 36t39.5 24.5t46 9t43 -9.5t31.5 -25.5t18 -36.5t2.5 -42.5t-14.5 -42.5t-29 -36t-39 -25
t-44.5 -9.5q-24 0 -43 9t-32.5 24.5t-19.5 36.5t-3 44zM465 838q2 14 -6.5 24.5t-22.5 10.5t-26.5 -10.5t-14.5 -24.5t7.5 -24t23.5 -10t25.5 9.5t13.5 24.5z" />
    <glyph glyph-name="AE" unicode="&#xc6;" horiz-adv-x="819" 
d="M860 708l-16 -116h-275l-26 -181h248l-16 -115h-248l-25 -182h275l-16 -114h-388l30 215h-164l-137 -215h-132l476 708h414zM304 324h114l19 135l22 110h-6q-13 -25 -24 -45q-9 -17 -16.5 -33t-9.5 -19z" />
    <glyph glyph-name="Ccedilla" unicode="&#xc7;" horiz-adv-x="584" 
d="M261 -131q13 -2 21 8q4 5 3.5 12.5t-8.5 14.5t-26.5 13t-49.5 8l50 71q-44 6 -82.5 22.5t-66 44.5t-40.5 67.5t-5 90.5l37 266q8 57 37.5 99.5t72 71t93.5 43t103 14.5q39 0 76 -10t68.5 -30t56 -50.5t37.5 -71.5l-110 -51q-19 48 -59.5 72.5t-87.5 24.5q-29 0 -58.5 -7
t-53.5 -21t-40 -35t-20 -49l-37 -266q-4 -28 6.5 -49t30.5 -35t47 -21t56 -7q48 0 95 24t79 72l97 -48q-43 -69 -106 -108.5t-129 -50.5l-14 -25q25 -10 40 -33t9 -54q-5 -26 -18 -45.5t-31.5 -32t-40 -19t-41.5 -6.5q-22 0 -48 9t-56 23l35 67z" />
    <glyph glyph-name="Egrave" unicode="&#xc8;" horiz-adv-x="572" 
d="M604 593h-351l-26 -181h323l-16 -116h-323l-25 -180h351l-16 -116h-467l99 709h467zM459 738h-110l-103 160h136z" />
    <glyph glyph-name="Eacute" unicode="&#xc9;" horiz-adv-x="572" 
d="M604 593h-351l-26 -181h323l-16 -116h-323l-25 -180h351l-16 -116h-467l99 709h467zM444 896h134l-146 -158h-109z" />
    <glyph glyph-name="Ecircumflex" unicode="&#xca;" horiz-adv-x="572" 
d="M604 593h-351l-26 -181h323l-16 -116h-323l-25 -180h351l-16 -116h-467l99 709h467zM380 884h82l120 -140h-129l-46 49l-56 -49h-131z" />
    <glyph glyph-name="Edieresis" unicode="&#xcb;" horiz-adv-x="572" 
d="M604 593h-351l-26 -181h323l-16 -116h-323l-25 -180h351l-16 -116h-467l99 709h467zM443 811q5 29 26 48t50 19t45.5 -19t11.5 -48q-4 -28 -25.5 -47t-50.5 -19t-45 19t-12 47zM242 811q5 29 26.5 48t49.5 19t44.5 -19t11.5 -48q-4 -28 -25.5 -47t-49.5 -19t-44.5 19
t-12.5 47z" />
    <glyph glyph-name="Igrave" unicode="&#xcc;" horiz-adv-x="262" 
d="M149 708h115l-99 -708h-115zM272 739h-108l-102 158h135z" />
    <glyph glyph-name="Iacute" unicode="&#xcd;" horiz-adv-x="262" 
d="M149 708h115l-99 -708h-115zM268 896h134l-146 -158h-109z" />
    <glyph glyph-name="Icircumflex" unicode="&#xce;" horiz-adv-x="262" 
d="M149 708h115l-99 -708h-115zM189 876h76l109 -141h-119l-42 51l-52 -51h-121z" />
    <glyph glyph-name="Idieresis" unicode="&#xcf;" horiz-adv-x="262" 
d="M241 800q4 27 24 45t46 18q27 0 42.5 -18t11.5 -45q-4 -26 -24.5 -43.5t-47.5 -17.5q-26 0 -41 17.5t-11 43.5zM75 800q4 27 24 45t46 18t41.5 -18t11.5 -45q-4 -26 -24.5 -43.5t-46.5 -17.5t-41 17.5t-11 43.5zM149 708h115l-99 -708h-115z" />
    <glyph glyph-name="Eth" unicode="&#xd0;" horiz-adv-x="613" 
d="M45 397h57l44 311h266q51 0 95 -12.5t75 -39.5t45.5 -68.5t6.5 -99.5l-38 -269q-8 -58 -34 -99.5t-64.5 -68t-86 -39t-98.5 -12.5h-266l42 302h-57zM329 116q60 0 102 23.5t50 79.5l38 269q4 28 -3.5 48t-24 32.5t-41 18t-54.5 5.5h-150l-28 -195h114l-13 -95h-114
l-26 -186h150z" />
    <glyph glyph-name="Ntilde" unicode="&#xd1;" horiz-adv-x="689" 
d="M227 395l-55 -395h-116l99 708h122l187 -418l53 -141l8 2l4 152l57 405h116l-99 -708h-135l-184 410l-47 135l-7 -2zM295 765q24 52 59 76t70 20q11 -2 22 -7.5t21 -11.5q8 -7 15.5 -12t14.5 -5.5t14.5 5t16.5 19.5l66 -32q-24 -55 -56.5 -75.5t-66.5 -16.5q-14 2 -26 8
t-23 12q-19 14 -32.5 12.5t-30.5 -27.5z" />
    <glyph glyph-name="Ograve" unicode="&#xd2;" horiz-adv-x="682" 
d="M108 495q8 57 38.5 100t74.5 71.5t97.5 43t107.5 14.5t103.5 -14.5t86 -43t55 -71.5t10.5 -100l-39 -281q-8 -57 -39 -100.5t-75.5 -72t-98 -43t-107.5 -14.5t-103.5 14.5t-85.5 43t-54 72t-10 100.5zM184 214q-4 -29 7.5 -50.5t33 -35.5t51.5 -21.5t62 -7.5
q33 0 64.5 7.5t58 21.5t44 35.5t22.5 50.5l39 281q4 30 -7.5 52t-34 36t-52.5 20.5t-62 6.5t-64 -7t-58 -21t-43.5 -35.5t-21.5 -51.5zM486 757h-110l-95 141h136z" />
    <glyph glyph-name="Oacute" unicode="&#xd3;" horiz-adv-x="682" 
d="M108 495q8 57 38.5 100t74.5 71.5t97.5 43t107.5 14.5t103.5 -14.5t86 -43t55 -71.5t10.5 -100l-39 -281q-8 -57 -39 -100.5t-75.5 -72t-98 -43t-107.5 -14.5t-103.5 14.5t-85.5 43t-54 72t-10 100.5zM184 214q-4 -29 7.5 -50.5t33 -35.5t51.5 -21.5t62 -7.5
q33 0 64.5 7.5t58 21.5t44 35.5t22.5 50.5l39 281q4 30 -7.5 52t-34 36t-52.5 20.5t-62 6.5t-64 -7t-58 -21t-43.5 -35.5t-21.5 -51.5zM489 904h139l-150 -152h-113z" />
    <glyph glyph-name="Ocircumflex" unicode="&#xd4;" horiz-adv-x="682" 
d="M108 495q8 57 38.5 100t74.5 71.5t97.5 43t107.5 14.5t103.5 -14.5t86 -43t55 -71.5t10.5 -100l-39 -281q-8 -57 -39 -100.5t-75.5 -72t-98 -43t-107.5 -14.5t-103.5 14.5t-85.5 43t-54 72t-10 100.5zM184 214q-4 -29 7.5 -50.5t33 -35.5t51.5 -21.5t62 -7.5
q33 0 64.5 7.5t58 21.5t44 35.5t22.5 50.5l39 281q4 30 -7.5 52t-34 36t-52.5 20.5t-62 6.5t-64 -7t-58 -21t-43.5 -35.5t-21.5 -51.5zM408 894h82l120 -141h-128l-46 49l-58 -49h-130z" />
    <glyph glyph-name="Otilde" unicode="&#xd5;" horiz-adv-x="679" 
d="M293 786q21 50 54.5 74t66.5 20q11 -1 22 -6t21 -11q8 -6 15 -10.5t14 -5t14 5t15 19.5l65 -30q-22 -54 -53.5 -74.5t-63.5 -16.5q-14 1 -25.5 7t-22.5 12q-19 12 -31.5 10.5t-29.5 -27.5zM108 495q8 57 38.5 100t74.5 71.5t97.5 43t107.5 14.5t103.5 -14.5t86 -43
t55 -71.5t10.5 -100l-39 -281q-8 -57 -39 -100.5t-75.5 -72t-98 -43t-107.5 -14.5t-103.5 14.5t-85.5 43t-54 72t-10 100.5zM184 214q-4 -29 7.5 -50.5t33 -35.5t51.5 -21.5t62 -7.5q33 0 64.5 7.5t58 21.5t44 35.5t22.5 50.5l39 281q4 30 -7.5 52t-34 36t-52.5 20.5
t-62 6.5t-64 -7t-58 -21t-43.5 -35.5t-21.5 -51.5z" />
    <glyph glyph-name="Odieresis" unicode="&#xd6;" horiz-adv-x="682" 
d="M108 495q8 57 38.5 100t74.5 71.5t97.5 43t107.5 14.5t103.5 -14.5t86 -43t55 -71.5t10.5 -100l-39 -281q-8 -57 -39 -100.5t-75.5 -72t-98 -43t-107.5 -14.5t-103.5 14.5t-85.5 43t-54 72t-10 100.5zM184 214q-4 -29 7.5 -50.5t33 -35.5t51.5 -21.5t62 -7.5
q33 0 64.5 7.5t58 21.5t44 35.5t22.5 50.5l39 281q4 30 -7.5 52t-34 36t-52.5 20.5t-62 6.5t-64 -7t-58 -21t-43.5 -35.5t-21.5 -51.5zM464 806q4 27 24 45t47 18t42.5 -18t11.5 -45q-4 -26 -24.5 -43.5t-47.5 -17.5t-42 17.5t-11 43.5zM276 806q4 27 24.5 45t46.5 18
t41 -18t11 -45q-4 -26 -24 -43.5t-46 -17.5t-41.5 17.5t-11.5 43.5z" />
    <glyph glyph-name="multiply" unicode="&#xd7;" horiz-adv-x="512" 
d="M170 519l125 -144l162 143l66 -79l-160 -141l120 -139l-88 -78l-120 140l-166 -145l-64 80l162 141l-124 145z" />
    <glyph glyph-name="Oslash" unicode="&#xd8;" horiz-adv-x="692" 
d="M118 495q8 57 38.5 100t74.5 71.5t97.5 43t107.5 14.5q20 0 40 -1.5t42 -6.5q9 17 19.5 36.5t18.5 33.5l102 -38l-40 -75q43 -28 62.5 -71t10.5 -107l-39 -281q-8 -57 -39 -100.5t-75.5 -72t-98 -43t-107.5 -14.5q-38 0 -81 8q-2 -5 -4.5 -9.5t-4.5 -9.5l-26 -51l-101 38
l38 75q-41 29 -62 72.5t-12 106.5zM194 214q-3 -20 2 -37.5t16 -30.5q33 61 64 118t61 113t60.5 112.5t63.5 118.5q-11 2 -20 2h-21q-32 0 -64 -7t-58 -21t-43.5 -35.5t-21.5 -51.5zM576 495q3 23 -1.5 39.5t-15.5 29.5l-185 -344l-63 -119q8 -2 17 -2h20q32 0 64 7.5
t58 21.5t44 35.5t23 50.5z" />
    <glyph glyph-name="Ugrave" unicode="&#xd9;" horiz-adv-x="684" 
d="M268 708l-69 -488q-4 -30 6.5 -52t30.5 -36.5t47.5 -21.5t56.5 -7q30 0 59 7t53.5 21.5t41 36.5t20.5 52l69 488h116l-69 -488q-8 -58 -37.5 -101.5t-72.5 -72.5t-94 -43.5t-102 -14.5t-98 14.5t-81.5 43.5t-52 72.5t-9.5 101.5l69 488h116zM505 710h-124l-103 152h155z
" />
    <glyph glyph-name="Uacute" unicode="&#xda;" horiz-adv-x="684" 
d="M268 708l-69 -488q-4 -30 6.5 -52t30.5 -36.5t47.5 -21.5t56.5 -7q30 0 59 7t53.5 21.5t41 36.5t20.5 52l69 488h116l-69 -488q-8 -58 -37.5 -101.5t-72.5 -72.5t-94 -43.5t-102 -14.5t-98 14.5t-81.5 43.5t-52 72.5t-9.5 101.5l69 488h116zM461 862h155l-147 -152h-124z
" />
    <glyph glyph-name="Ucircumflex" unicode="&#xdb;" horiz-adv-x="684" 
d="M400 892h90l132 -150h-141l-53 53l-60 -53h-143zM268 708l-69 -488q-4 -30 6.5 -52t30.5 -36.5t47.5 -21.5t56.5 -7q30 0 59 7t53.5 21.5t41 36.5t20.5 52l69 488h116l-69 -488q-8 -58 -37.5 -101.5t-72.5 -72.5t-94 -43.5t-102 -14.5t-98 14.5t-81.5 43.5t-52 72.5
t-9.5 101.5l69 488h116z" />
    <glyph glyph-name="Udieresis" unicode="&#xdc;" horiz-adv-x="684" 
d="M268 708l-69 -488q-4 -30 6.5 -52.5t30.5 -37.5t47.5 -22.5t56.5 -7.5q30 0 59 7.5t53.5 22.5t41 37.5t20.5 52.5l69 488h116l-69 -488q-8 -58 -37.5 -101.5t-72.5 -72.5t-94 -43.5t-102 -14.5t-98 14.5t-81.5 43.5t-52 72.5t-9.5 101.5l69 488h116zM466 795
q4 28 25 46.5t50 18.5q28 0 44 -18.5t12 -46.5q-4 -29 -25 -48t-49 -19q-29 0 -45 19t-12 48zM285 795q4 28 25.5 46.5t49.5 18.5q29 0 45 -18.5t12 -46.5q-4 -29 -25 -48t-50 -19q-28 0 -44.5 19t-12.5 48z" />
    <glyph glyph-name="Yacute" unicode="&#xdd;" horiz-adv-x="580" 
d="M377 275l-38 -275h-116l38 275l-185 433h133l126 -322l215 322h135zM412 874h149l-140 -151h-121z" />
    <glyph glyph-name="Thorn" unicode="&#xde;" horiz-adv-x="549" 
d="M253 593q13 1 26.5 1.5t28.5 0.5q140 0 203.5 -59.5t48.5 -171.5q-9 -66 -41 -110t-78 -70.5t-100.5 -37.5t-109.5 -11h-43l-18 -134h-117l100 714h117zM205 250h40q31 0 64.5 5t61.5 17.5t48 34.5t25 57t-8.5 57.5t-36.5 35t-53 17.5t-58 5q-13 0 -25.5 -0.5t-25.5 -1.5
z" />
    <glyph glyph-name="germandbls" unicode="&#xdf;" horiz-adv-x="587" 
d="M224 132q29 -20 66.5 -24t71.5 7.5t59.5 37t30.5 63.5q4 28 -3 48t-22.5 33t-37.5 19t-49 6h-92l15 105h92q40 0 73 26.5t39 71.5q3 23 -4.5 39.5t-22.5 27t-34.5 15.5t-40.5 5t-43 -5.5t-40.5 -17t-31.5 -29t-16 -41.5l-72 -519h-111l72 519q7 48 32 85t60.5 62
t78.5 37.5t85 12.5t81 -11.5t68 -35.5t44 -60t8 -84q-3 -20 -9.5 -41t-17.5 -40.5t-26.5 -36t-35.5 -26.5q50 -26 66.5 -68.5t8.5 -96.5q-11 -67 -49 -114.5t-89.5 -73t-110 -28.5t-109.5 20z" />
    <glyph glyph-name="agrave" unicode="&#xe0;" horiz-adv-x="511" 
d="M347 0l-8 45q-29 -27 -63.5 -39.5t-68.5 -12t-65 13t-53.5 35.5t-33.5 55.5t-5 73.5l24 172q7 51 30 85.5t56 56t73.5 30.5t82.5 9q48 0 97.5 -13t88.5 -33l-66 -478h-89zM385 413q-22 12 -54.5 15.5t-64 -4t-55.5 -27t-28 -53.5l-24 -173q-5 -36 15 -53t51 -20.5
t64.5 5.5t55.5 26zM398 548h-101l-97 144h126z" />
    <glyph glyph-name="aacute" unicode="&#xe1;" horiz-adv-x="511" 
d="M363 691h126l-137 -141h-101zM347 0l-8 45q-29 -27 -63.5 -39.5t-68.5 -12t-65 13t-53.5 35.5t-33.5 55.5t-5 73.5l24 172q7 51 30 85.5t56 56t73.5 30.5t82.5 9q48 0 97.5 -13t88.5 -33l-66 -478h-89zM385 413q-22 12 -54.5 15.5t-64 -4t-55.5 -27t-28 -53.5l-24 -173
q-5 -36 15 -53t51 -20.5t64.5 5.5t55.5 26z" />
    <glyph glyph-name="acircumflex" unicode="&#xe2;" horiz-adv-x="511" 
d="M347 0l-8 45q-29 -27 -63.5 -39.5t-68.5 -12t-65 13t-53.5 35.5t-33.5 55.5t-5 73.5l24 172q7 51 30 85.5t56 56t73.5 30.5t82.5 9q48 0 97.5 -13t88.5 -33l-66 -478h-89zM385 413q-22 12 -54.5 15.5t-64 -4t-55.5 -27t-28 -53.5l-24 -173q-5 -36 15 -53t51 -20.5
t64.5 5.5t55.5 26zM304 687h69l100 -128h-108l-39 45l-48 -45h-110z" />
    <glyph glyph-name="atilde" unicode="&#xe3;" horiz-adv-x="511" 
d="M185 582q20 45 51 66.5t63 18.5q11 -1 21 -5.5t20 -9.5q8 -6 14.5 -10t13 -4.5t13 4.5t14.5 17l61 -26q-20 -49 -49.5 -67.5t-58.5 -15.5q-14 2 -25 7t-21 10q-19 12 -31 10.5t-27 -24.5zM347 0l-8 45q-29 -27 -63.5 -39.5t-68.5 -12t-65 13t-53.5 35.5t-33.5 55.5
t-5 73.5l24 172q7 51 30 85.5t56 56t73.5 30.5t82.5 9q48 0 97.5 -13t88.5 -33l-66 -478h-89zM385 413q-22 12 -54.5 15.5t-64 -4t-55.5 -27t-28 -53.5l-24 -173q-5 -36 15 -53t51 -20.5t64.5 5.5t55.5 26z" />
    <glyph glyph-name="adieresis" unicode="&#xe4;" horiz-adv-x="511" 
d="M347 0l-8 45q-29 -27 -63.5 -39.5t-68.5 -12t-65 13t-53.5 35.5t-33.5 55.5t-5 73.5l24 172q7 51 30 85.5t56 56t73.5 30.5t82.5 9q48 0 97.5 -13t88.5 -33l-66 -478h-89zM385 413q-22 12 -54.5 15.5t-64 -4t-55.5 -27t-28 -53.5l-24 -173q-5 -36 15 -53t51 -20.5
t64.5 5.5t55.5 26zM356 613q3 25 21.5 41.5t43.5 16.5t39.5 -16.5t11.5 -41.5q-4 -24 -23 -40.5t-44 -16.5t-39 16.5t-10 40.5zM182 613q3 25 22 41.5t43 16.5t38 -16.5t11 -41.5q-4 -24 -22.5 -40.5t-42.5 -16.5t-38.5 16.5t-10.5 40.5z" />
    <glyph glyph-name="aring" unicode="&#xe5;" horiz-adv-x="511" 
d="M347 0l-8 45q-29 -27 -63.5 -39.5t-68.5 -12t-65 13t-53.5 35.5t-33.5 55.5t-5 73.5l24 172q7 51 30 85.5t56 56t73.5 30.5t82.5 9q48 0 97.5 -13t88.5 -33l-66 -478h-89zM385 413q-22 12 -54.5 15.5t-64 -4t-55.5 -27t-28 -53.5l-24 -173q-5 -36 15 -53t51 -20.5
t64.5 5.5t55.5 26zM228 646q3 20 13.5 37.5t26.5 31t36 21.5t42 8q21 0 38.5 -8.5t29 -22t17 -31.5t2.5 -37t-13 -37t-26 -31.5t-35.5 -21.5t-40.5 -8q-44 0 -69.5 29t-20.5 70zM362 645q2 13 -6.5 21.5t-20.5 8.5q-13 0 -24 -8.5t-13 -21.5q-2 -12 7 -20.5t22 -8.5
q12 0 22.5 8t12.5 21z" />
    <glyph glyph-name="ae" unicode="&#xe6;" horiz-adv-x="786" 
d="M724 90q-40 -50 -88 -73.5t-99 -23.5q-31 0 -61 7.5t-55 22.5l-5 -26h-74l1 48q-29 -27 -63.5 -39.5t-69 -12t-66 13t-54 35.5t-34 55.5t-5.5 73.5l24 172q7 51 30 86t56.5 56.5t74 31t83 9t83 -9.5t73.5 -24q29 17 63 26t68 9q39 0 73.5 -11.5t60 -34t37.5 -56.5t6 -79
q-5 -36 -22.5 -64.5t-43.5 -49t-57.5 -33t-65.5 -16t-67.5 1t-62.5 18.5l-4 -31q-5 -35 15.5 -55.5t52 -25t67 8t59.5 42.5zM160 171q-5 -35 14 -54.5t49.5 -24t65.5 5t62 32.5q-2 22 1 42l24 171q4 35 20 66q-26 16 -60.5 20t-67 -3.5t-56.5 -28t-28 -53.5zM477 292
q20 -6 44.5 -12t47.5 -6q19 0 37 4t32.5 13t24 22.5t12.5 32.5t-3.5 34t-18.5 25t-28 15t-34 5t-36 -5t-33 -15.5t-25 -25.5t-13 -35z" />
    <glyph glyph-name="ccedilla" unicode="&#xe7;" horiz-adv-x="453" 
d="M50 171l24 175q6 45 28.5 78.5t54.5 55.5t70 33t76 11q30 0 60.5 -7.5t55.5 -23.5t43 -42t23 -63l-105 -38q-5 36 -33 52t-61.5 14.5t-63 -19.5t-38.5 -50l-25 -177q0 -21 11.5 -36.5t29.5 -24t40.5 -9.5t44.5 6t40.5 22t28.5 39l97 -38q-13 -30 -32 -52.5t-42 -38.5
t-48.5 -26t-51.5 -14l-8 -13q23 -8 36.5 -26t8.5 -41q-4 -20 -15.5 -35.5t-27.5 -25.5t-34.5 -15t-36.5 -5q-19 0 -42.5 7t-49.5 18l30 53l69 -11q11 0 18 7q3 4 2.5 9.5t-8 11t-23.5 10t-43 6.5l37 48q-32 4 -60 17.5t-47.5 35t-29 52.5t-3.5 70z" />
    <glyph glyph-name="egrave" unicode="&#xe8;" horiz-adv-x="493" 
d="M368 559h-101l-97 144h126zM425 90q-40 -50 -92 -74t-103 -24q-38 0 -72.5 11.5t-60 34t-38 56t-6.5 78.5l24 171q6 46 28.5 80.5t54.5 57.5t70 34.5t77 11.5t73.5 -11.5t60 -34t37.5 -56.5t6 -79q-5 -36 -22.5 -64.5t-43.5 -49t-57.5 -33t-65.5 -16t-67.5 1t-62.5 18.5
l-4 -31q-5 -35 15.5 -55.5t52 -25t67 8t59.5 42.5zM178 292q20 -6 44.5 -12t47.5 -6q19 0 37 4t32.5 13t24 22.5t12.5 32.5t-3.5 34t-18.5 25t-28 15t-34 5t-36 -5t-33 -15.5t-25 -25.5t-13 -35z" />
    <glyph glyph-name="eacute" unicode="&#xe9;" horiz-adv-x="493" 
d="M355 703h126l-137 -144h-101zM425 90q-40 -50 -92 -74t-103 -24q-38 0 -72.5 11.5t-60 34t-38 56t-6.5 78.5l24 171q6 46 28.5 80.5t54.5 57.5t70 34.5t77 11.5t73.5 -11.5t60 -34t37.5 -56.5t6 -79q-5 -36 -22.5 -64.5t-43.5 -49t-57.5 -33t-65.5 -16t-67.5 1
t-62.5 18.5l-4 -31q-5 -35 15.5 -55.5t52 -25t67 8t59.5 42.5zM178 292q20 -6 44.5 -12t47.5 -6q19 0 37 4t32.5 13t24 22.5t12.5 32.5t-3.5 34t-18.5 25t-28 15t-34 5t-36 -5t-33 -15.5t-25 -25.5t-13 -35z" />
    <glyph glyph-name="ecircumflex" unicode="&#xea;" horiz-adv-x="493" 
d="M425 90q-40 -50 -92 -74t-103 -24q-38 0 -72.5 11.5t-60 34t-38 56t-6.5 78.5l24 171q6 46 28.5 80.5t54.5 57.5t70 34.5t77 11.5t73.5 -11.5t60 -34t37.5 -56.5t6 -79q-5 -36 -22.5 -64.5t-43.5 -49t-57.5 -33t-65.5 -16t-67.5 1t-62.5 18.5l-4 -31q-5 -35 15.5 -55.5
t52 -25t67 8t59.5 42.5zM178 292q20 -6 44.5 -12t47.5 -6q19 0 37 4t32.5 13t24 22.5t12.5 32.5t-3.5 34t-18.5 25t-28 15t-34 5t-36 -5t-33 -15.5t-25 -25.5t-13 -35zM291 691h69l99 -134h-108l-39 47l-48 -47h-110z" />
    <glyph glyph-name="edieresis" unicode="&#xeb;" horiz-adv-x="493" 
d="M425 90q-40 -50 -92 -74t-103 -24q-38 0 -72.5 11.5t-60 34t-38 56t-6.5 78.5l24 171q6 46 28.5 80.5t54.5 57.5t70 34.5t77 11.5t73.5 -11.5t60 -34t37.5 -56.5t6 -79q-5 -36 -22.5 -64.5t-43.5 -49t-57.5 -33t-65.5 -16t-67.5 1t-62.5 18.5l-4 -31q-5 -35 15.5 -55.5
t52 -25t67 8t59.5 42.5zM178 292q20 -6 44.5 -12t47.5 -6q19 0 37 4t32.5 13t24 22.5t12.5 32.5t-3.5 34t-18.5 25t-28 15t-34 5t-36 -5t-33 -15.5t-25 -25.5t-13 -35zM349 619q4 25 23 42t44 17q26 0 40 -17t10 -42q-3 -25 -22 -41.5t-45 -16.5q-25 0 -39 16.5t-11 41.5z
M172 619q4 25 23.5 42t44.5 17q24 0 38.5 -17t10.5 -42q-3 -25 -22.5 -41.5t-43.5 -16.5q-25 0 -39.5 16.5t-11.5 41.5z" />
    <glyph glyph-name="igrave" unicode="&#xec;" horiz-adv-x="240" 
d="M121 484h114l-68 -484h-114zM240 509h-108l-82 117h135z" />
    <glyph glyph-name="iacute" unicode="&#xed;" horiz-adv-x="247" 
d="M171 0h-114l68 484h114zM213 626h135l-114 -117h-108z" />
    <glyph glyph-name="icircumflex" unicode="&#xee;" horiz-adv-x="240" 
d="M165 634h68l96 -125h-108l-36 42q-11 -10 -22.5 -22t-21.5 -20h-108zM123 484h114l-68 -484h-114z" />
    <glyph glyph-name="idieresis" unicode="&#xef;" horiz-adv-x="246" 
d="M207 573q4 26 24 44t48 18q26 0 41 -18t11 -44q-4 -27 -24 -44.5t-46 -17.5q-28 0 -43 17.5t-11 44.5zM54 573q4 26 24 44t46 18q27 0 42.5 -18t11.5 -44q-4 -27 -24.5 -44.5t-47.5 -17.5q-26 0 -41 17.5t-11 44.5zM123 482h114l-67 -482h-114z" />
    <glyph glyph-name="eth" unicode="&#xf0;" horiz-adv-x="525" 
d="M169 627q21 16 45.5 29.5t50 22t50.5 11.5t47 -1l27 58l74 -21l-26 -51q48 -17 70 -57.5t14 -99.5l-68 -487q-45 -12 -77.5 -19.5t-56.5 -11.5t-42 -5t-34 -1q-37 0 -71 11.5t-58.5 33.5t-37 55t-6.5 77l19 135q5 40 24 69.5t45.5 49t58.5 30t65 12.5t64.5 -4.5
t55.5 -19.5l10 75q2 15 -2.5 29t-18.5 23l-31 -61l-74 22l27 53q-20 0 -45 -8.5t-45 -23.5zM257 93q54 0 98 14l33 241q-20 15 -50.5 22.5t-60 3.5t-52.5 -20.5t-27 -47.5l-21 -143q-2 -17 4 -30t17.5 -22t26.5 -13.5t32 -4.5z" />
    <glyph glyph-name="ntilde" unicode="&#xf1;" horiz-adv-x="528" 
d="M193 577q17 47 46.5 70t59.5 21q11 1 21 -3t20 -9q7 -6 14 -10t13 -4t12.5 5t13.5 18l62 -23q-19 -50 -46.5 -70t-57.5 -19q-11 2 -22.5 6.5t-22.5 9.5q-18 11 -29.5 8.5t-25.5 -25.5zM115 484q39 18 85 29t91 12.5t86 -8t70.5 -31.5t44.5 -57.5t8 -86.5l-48 -342h-109
l47 341q3 33 -15.5 52t-47 26t-60 3t-54.5 -17l-56 -405h-110z" />
    <glyph glyph-name="ograve" unicode="&#xf2;" horiz-adv-x="502" 
d="M375 554h-108l-81 115h135zM297 423q-17 0 -34.5 -4.5t-32.5 -13.5t-25 -22.5t-13 -31.5l-26 -181q-2 -18 4.5 -32.5t18.5 -24.5t28.5 -15t33.5 -5q16 0 33.5 5t32 15t25 24.5t12.5 32.5l26 181q3 18 -4 31.5t-19 22.5t-28 13.5t-32 4.5zM82 351q6 45 28.5 78t54.5 55.5
t70.5 34t76.5 11.5q37 0 72 -11.5t60.5 -34t38.5 -55.5t7 -78l-26 -181q-6 -45 -28.5 -78.5t-54.5 -56t-70 -33.5t-75 -11q-38 0 -73.5 11t-61 33.5t-38.5 56t-7 78.5z" />
    <glyph glyph-name="oacute" unicode="&#xf3;" horiz-adv-x="502" 
d="M349 671h135l-114 -115h-108zM297 423q-17 0 -34.5 -4.5t-32.5 -13.5t-25 -22.5t-13 -31.5l-26 -181q-2 -18 4.5 -32.5t18.5 -24.5t28.5 -15t33.5 -5q16 0 33.5 5t32 15t25 24.5t12.5 32.5l26 181q3 18 -4 31.5t-19 22.5t-28 13.5t-32 4.5zM82 351q6 45 28.5 78
t54.5 55.5t70.5 34t76.5 11.5q37 0 72 -11.5t60.5 -34t38.5 -55.5t7 -78l-26 -181q-6 -45 -28.5 -78.5t-54.5 -56t-70 -33.5t-75 -11q-38 0 -73.5 11t-61 33.5t-38.5 56t-7 78.5z" />
    <glyph glyph-name="ocircumflex" unicode="&#xf4;" horiz-adv-x="502" 
d="M298 668h66l97 -118h-104l-36 42l-46 -42h-105zM297 423q-17 0 -34.5 -4.5t-32.5 -13.5t-25 -22.5t-13 -31.5l-26 -181q-2 -18 4.5 -32.5t18.5 -24.5t28.5 -15t33.5 -5q16 0 33.5 5t32 15t25 24.5t12.5 32.5l26 181q3 18 -4 31.5t-19 22.5t-28 13.5t-32 4.5zM82 351
q6 45 28.5 78t54.5 55.5t70.5 34t76.5 11.5q37 0 72 -11.5t60.5 -34t38.5 -55.5t7 -78l-26 -181q-6 -45 -28.5 -78.5t-54.5 -56t-70 -33.5t-75 -11q-38 0 -73.5 11t-61 33.5t-38.5 56t-7 78.5z" />
    <glyph glyph-name="otilde" unicode="&#xf5;" horiz-adv-x="502" 
d="M187 587q13 29 31 48t38 28t41.5 7t41.5 -14q7 -6 14 -9.5t13.5 -3.5t13 5.5t14.5 18.5l59 -27q-20 -49 -49 -68t-59 -16q-12 0 -23 5.5t-21 11.5q-17 11 -29 9.5t-27 -25.5zM297 423q-17 0 -34.5 -4.5t-32.5 -13.5t-25 -22.5t-13 -31.5l-26 -181q-2 -18 4.5 -32.5
t18.5 -24.5t28.5 -15t33.5 -5q16 0 33.5 5t32 15t25 24.5t12.5 32.5l26 181q3 18 -4 31.5t-19 22.5t-28 13.5t-32 4.5zM82 351q6 45 28.5 78t54.5 55.5t70.5 34t76.5 11.5q37 0 72 -11.5t60.5 -34t38.5 -55.5t7 -78l-26 -181q-6 -45 -28.5 -78.5t-54.5 -56t-70 -33.5
t-75 -11q-38 0 -73.5 11t-61 33.5t-38.5 56t-7 78.5z" />
    <glyph glyph-name="odieresis" unicode="&#xf6;" horiz-adv-x="502" 
d="M350 603q4 23 21.5 39t41.5 16q23 0 37 -16t10 -39q-3 -23 -21 -39t-41 -16q-24 0 -37.5 16t-10.5 39zM184 603q4 23 22 39t41 16t36.5 -16t9.5 -39q-3 -23 -20.5 -39t-40.5 -16t-37 16t-11 39zM297 423q-17 0 -34.5 -4.5t-32.5 -13.5t-25 -22.5t-13 -31.5l-26 -181
q-2 -18 4.5 -32.5t18.5 -24.5t28.5 -15t33.5 -5q16 0 33.5 5t32 15t25 24.5t12.5 32.5l26 181q3 18 -4 31.5t-19 22.5t-28 13.5t-32 4.5zM82 351q6 45 28.5 78t54.5 55.5t70.5 34t76.5 11.5q37 0 72 -11.5t60.5 -34t38.5 -55.5t7 -78l-26 -181q-6 -45 -28.5 -78.5t-54.5 -56
t-70 -33.5t-75 -11q-38 0 -73.5 11t-61 33.5t-38.5 56t-7 78.5z" />
    <glyph glyph-name="divide" unicode="&#xf7;" horiz-adv-x="534" 
d="M85 384h443l-15 -113h-443zM246 488q5 32 29.5 53t55.5 21t51 -21t15 -53q-5 -31 -30.5 -53.5t-56.5 -22.5t-50 22.5t-14 53.5zM205 166q5 32 29.5 52.5t55.5 21.5q32 0 51.5 -21t14.5 -53t-30 -54t-56 -22q-15 0 -28 6t-22 16t-13 24t-2 30z" />
    <glyph glyph-name="oslash" unicode="&#xf8;" horiz-adv-x="504" 
d="M82 351q6 45 28.5 78t54.5 55.5t70.5 34t76.5 11.5q11 -1 22.5 -2t23.5 -3l39 70l85 -32l-42 -73q32 -17 44.5 -51.5t6.5 -79.5l-27 -189q-6 -45 -28.5 -78.5t-54.5 -56t-70 -33.5t-76 -11q-14 1 -26.5 2t-25.5 3q-8 -15 -18.5 -33t-17.5 -31l-82 37l37 64
q-60 32 -48 122zM252 100q16 0 33 4t31.5 12.5t25 22t12.5 31.5l30 212l-143 -282q3 -1 5 -0.5t6 0.5zM297 420q-17 0 -34.5 -4t-32.5 -12t-25 -21.5t-13 -31.5l-30 -215l141 284h-6z" />
    <glyph glyph-name="ugrave" unicode="&#xf9;" horiz-adv-x="512" 
d="M378 536h-108l-82 117h135zM451 33q-45 -19 -93.5 -30t-93.5 -12.5t-84.5 7t-67.5 30t-41.5 56.5t-6.5 86l49 348h110l-49 -350q-3 -32 14.5 -51t45 -26.5t60 -4t58.5 16.5l58 415h109z" />
    <glyph glyph-name="uacute" unicode="&#xfa;" horiz-adv-x="512" 
d="M344 653h135l-114 -117h-108zM451 33q-45 -19 -93.5 -30t-93.5 -12.5t-84.5 7t-67.5 30t-41.5 56.5t-6.5 86l49 348h110l-49 -350q-3 -32 14.5 -51t45 -26.5t60 -4t58.5 16.5l58 415h109z" />
    <glyph glyph-name="ucircumflex" unicode="&#xfb;" horiz-adv-x="512" 
d="M304 666h66l97 -118h-104l-37 42l-45 -42h-105zM451 33q-45 -19 -93.5 -30t-93.5 -12.5t-84.5 7t-67.5 30t-41.5 56.5t-6.5 86l49 348h110l-49 -350q-3 -32 14.5 -51t45 -26.5t60 -4t58.5 16.5l58 415h109z" />
    <glyph glyph-name="udieresis" unicode="&#xfc;" horiz-adv-x="512" 
d="M451 33q-45 -19 -93.5 -30t-93.5 -12.5t-84.5 7t-67.5 30t-41.5 56.5t-6.5 86l49 348h110l-49 -350q-3 -32 14.5 -51t45 -26.5t60 -4t58.5 16.5l58 415h109zM359 605q3 23 20.5 39.5t41.5 16.5t38 -16.5t11 -39.5q-4 -23 -22 -39t-42 -16t-37.5 16t-9.5 39zM191 605
q3 23 21 39.5t41 16.5t37 -16.5t11 -39.5q-4 -23 -22 -39t-41 -16t-37 16t-10 39z" />
    <glyph glyph-name="yacute" unicode="&#xfd;" horiz-adv-x="518" 
d="M353 653h135l-114 -117h-108zM522 518l-72 -518q-8 -58 -37.5 -97t-70.5 -61.5t-88.5 -29t-91.5 2.5t-80.5 32t-54.5 59l75 63q13 -21 34.5 -35.5t47 -22t52 -6.5t49.5 12.5t39.5 34t21.5 58.5q-51 -20 -105 -18.5t-97 22.5t-67.5 60.5t-16.5 96.5l48 347h110l-49 -348
q-3 -32 17.5 -50t50.5 -24t63.5 -0.5t56.5 20.5l56 402h109z" />
    <glyph glyph-name="thorn" unicode="&#xfe;" horiz-adv-x="521" 
d="M142 685h110l-27 -189q49 19 101.5 20t94 -18t65 -58.5t15.5 -100.5l-24 -169q-6 -55 -42 -95t-84.5 -61.5t-101 -21.5t-91.5 25l-27 -190h-110zM171 111q21 -14 51.5 -20t60.5 0t53.5 24.5t30.5 54.5l25 176q3 34 -16 51.5t-47.5 22.5t-61 -0.5t-55.5 -17.5z" />
    <glyph glyph-name="ydieresis" unicode="&#xff;" horiz-adv-x="518" 
d="M522 518l-72 -518q-8 -58 -37.5 -97t-70.5 -61.5t-88.5 -29t-91.5 2.5t-80.5 32t-54.5 59l75 63q19 -31 57 -46.5t77 -12.5t71 27t39 73q-51 -20 -105 -18.5t-97 22.5t-67.5 60.5t-16.5 96.5l48 347h110l-49 -348q-3 -32 17.5 -50t50.5 -24t63.5 -0.5t56.5 20.5l56 402
h109zM364 608q4 26 22.5 43t44.5 17t40.5 -17t10.5 -43q-4 -24 -22.5 -41t-44.5 -17t-40.5 17t-10.5 41zM174 608q4 26 23 43t44 17t40 -17t11 -43q-4 -24 -23 -41t-44 -17t-40 17t-11 41z" />
    <glyph glyph-name="OE" unicode="&#x152;" horiz-adv-x="937" 
d="M969 591h-351l-26 -181h323l-16 -115h-323l-25 -180h351l-17 -116h-461l3 22q-41 -19 -85.5 -25.5t-86.5 -2.5t-79 19t-63 41t-38 62.5t-4 82.5l43 305q5 45 28 82t57.5 63.5t76.5 42.5t85.5 20t85 -4t73.5 -30l4 30h461zM342 99q26 0 52 9t49 25l60 429q-16 18 -41.5 29
t-54.5 13.5t-59.5 -2.5t-55.5 -18t-42.5 -33.5t-20.5 -48.5l-42 -302q-4 -29 7.5 -48.5t34 -31t52 -16.5t61.5 -5z" />
    <glyph glyph-name="oe" unicode="&#x153;" horiz-adv-x="792" 
d="M729 90q-40 -50 -92 -75t-103 -25q-41 0 -78 15.5t-60 50.5q-33 -37 -75 -50.5t-83 -14.5q-38 0 -73.5 11t-61 33.5t-38.5 56t-7 78.5l26 181q6 45 28.5 78t54.5 55.5t70.5 34t76.5 11.5q21 0 42.5 -4.5t40.5 -13t34 -21.5t23 -31q32 39 73.5 53t83.5 14q39 0 73.5 -11.5
t60 -34t37.5 -56.5t6 -79q-8 -54 -42 -91t-80.5 -55.5t-99 -18t-95.5 21.5l-4 -31q-5 -35 15 -55.5t51.5 -25t66.5 8t59 42.5zM299 423q-17 0 -34.5 -4.5t-32.5 -13.5t-25 -22.5t-13 -31.5l-26 -181q-2 -18 4.5 -32.5t18.5 -24.5t28.5 -15t33.5 -5q32 0 63.5 19t39.5 54v4
l25 173l1 8q3 18 -4 31.5t-19 22.5t-28 13.5t-32 4.5zM484 292q20 -6 43.5 -12t46.5 -6q19 0 37 4t32.5 13t24 22.5t12.5 32.5t-3.5 34t-18.5 25t-28 15t-34 5t-36 -5t-32.5 -15.5t-24 -25.5t-12.5 -35z" />
    <glyph glyph-name="Scaron" unicode="&#x160;" horiz-adv-x="595" 
d="M221 520q-5 -23 5 -39.5t30 -28t46.5 -19t53.5 -12.5q45 -9 89.5 -23t77.5 -40.5t48.5 -67.5t3.5 -103q-9 -51 -38 -88t-69 -61.5t-88.5 -36.5t-96.5 -12q-41 0 -78.5 11t-69.5 32.5t-56 53.5t-37 74l113 48q16 -51 56 -78t90 -27q27 0 53 6t48 17.5t37 29t20 40.5
q6 30 -3.5 49.5t-30 32.5t-49.5 20t-61 12q-44 7 -84.5 21.5t-71 39.5t-46 62.5t-8.5 90.5q10 48 37.5 85t66.5 61.5t85 37t93 12.5q40 0 76.5 -8t67.5 -26.5t54 -47.5t35 -71l-111 -46q-16 50 -52 70.5t-85 20.5q-26 0 -51 -6t-46 -17.5t-35.5 -29t-18.5 -39.5zM428 741
h-87l-129 133h135l49 -47l59 47h136z" />
    <glyph glyph-name="scaron" unicode="&#x161;" horiz-adv-x="425" 
d="M110 166q15 -35 45 -53.5t61 -20.5t56.5 12t31.5 46q2 14 -4.5 23.5t-17.5 16t-24.5 10.5t-26.5 7q-27 5 -57.5 14.5t-56 27t-40 46t-8.5 72.5q6 43 28 73t52.5 49t66 27.5t68.5 8.5q42 0 84 -18t75 -56l-76 -72q-18 21 -48 32.5t-59 11.5t-52 -11.5t-29 -35.5
q-4 -17 3 -29t20 -19.5t29.5 -12t32.5 -7.5q30 -5 59 -14.5t51 -27.5t33 -45.5t6 -68.5q-7 -50 -35 -85t-67 -54t-84 -23t-86 8.5t-74 41t-47 73.5zM317 540h-70l-107 113h116l37 -37l45 37h117z" />
    <glyph glyph-name="Ydieresis" unicode="&#x178;" horiz-adv-x="530" 
d="M198 795q5 29 27 49t51 20t46 -20t12 -49q-4 -29 -26 -48.5t-51 -19.5t-46 19.5t-13 48.5zM400 795q5 29 27 49t51 20t46.5 -20t12.5 -49q-4 -29 -26.5 -48.5t-51.5 -19.5t-46 19.5t-13 48.5zM352 279l-39 -279h-116l39 279l-185 429h132l128 -312q51 78 106 156t107 156
h135z" />
    <glyph glyph-name="Zcaron" unicode="&#x17d;" horiz-adv-x="563" 
d="M100 595l16 113h494l24 -75l-467 -522h380l-15 -111h-505l-21 76l466 519h-372zM425 724h-85l-130 141h138l48 -48l59 48h139z" />
    <glyph glyph-name="zcaron" unicode="&#x17e;" horiz-adv-x="436" 
d="M322 535h-70l-105 113h114l36 -37l46 37h115zM67 411l15 107h354l33 -66l-305 -345h259l-15 -107h-369l-36 65l309 346h-245z" />
    <glyph glyph-name="florin" unicode="&#x192;" horiz-adv-x="507" 
d="M29 -21q14 -4 27 -5t24 4t19 17t12 34l56 294h-89v107h108l24 130q5 28 15.5 56t29 50t46 36t66.5 14q17 0 38 -5t43 -17l-42 -88q-33 17 -55.5 -0.5t-27.5 -52.5v1l-23 -124h90v-107h-108l-59 -317q-12 -62 -48.5 -98t-108.5 -36q-15 0 -32.5 4t-36.5 14z" />
    <glyph glyph-name="circumflex" unicode="&#x2c6;" horiz-adv-x="392" 
d="M249 708h88l127 -165h-138l-49 58l-61 -58h-140z" />
    <glyph glyph-name="tilde" unicode="&#x2dc;" horiz-adv-x="271" 
d="M63 574q18 54 50.5 81t67.5 27q12 0 23.5 -4.5t22.5 -9.5q9 -6 17 -10t15.5 -3.5t14.5 6.5t14 21l71 -24q-19 -57 -49.5 -80.5t-64.5 -23.5q-14 0 -27 5t-25 10q-20 11 -33.5 8.5t-28.5 -30.5z" />
    <glyph glyph-name="endash" unicode="&#x2013;" horiz-adv-x="529" 
d="M66 350h471l-16 -111h-471z" />
    <glyph glyph-name="emdash" unicode="&#x2014;" horiz-adv-x="947" 
d="M80 350h853l-16 -111h-853z" />
    <glyph glyph-name="quoteleft" unicode="&#x2018;" horiz-adv-x="235" 
d="M205 445h-126l123 262h115z" />
    <glyph glyph-name="quoteright" unicode="&#x2019;" horiz-adv-x="239" 
d="M191 708h128l-125 -262h-113z" />
    <glyph glyph-name="quotesinglbase" unicode="&#x201a;" horiz-adv-x="253" 
d="M98 127h130l-126 -249h-110z" />
    <glyph glyph-name="quotedblleft" unicode="&#x201c;" horiz-adv-x="412" 
d="M211 443h-128l124 262h113zM382 443h-128l125 262h112z" />
    <glyph glyph-name="quotedblright" unicode="&#x201d;" horiz-adv-x="423" 
d="M367 707h128l-124 -262h-113zM200 707h128l-125 -262h-113z" />
    <glyph glyph-name="quotedblbase" unicode="&#x201e;" horiz-adv-x="491" 
d="M315 123h128l-124 -245h-113zM137 123h129l-125 -245h-112z" />
    <glyph glyph-name="dagger" unicode="&#x2020;" horiz-adv-x="507" 
d="M239 407h-170l15 107h170l27 195h112l-27 -195h170l-15 -107h-170l-73 -519h-112z" />
    <glyph glyph-name="daggerdbl" unicode="&#x2021;" horiz-adv-x="507" 
d="M193 81h-170l15 106h170l31 220h-170l15 106h170l27 195h112l-27 -195h170l-15 -106h-170l-31 -220h170l-15 -106h-170l-27 -193h-112z" />
    <glyph glyph-name="bullet" unicode="&#x2022;" horiz-adv-x="428" 
d="M97 343q4 31 19.5 58t38 47t51.5 31.5t60 11.5t56 -11.5t42 -31.5t24.5 -47t3.5 -58q-5 -31 -20 -58t-37.5 -47.5t-51 -32t-59.5 -11.5t-56.5 11.5t-42.5 32t-25 47.5t-3 58z" />
    <glyph glyph-name="ellipsis" unicode="&#x2026;" horiz-adv-x="654" 
d="M76 67q5 31 28.5 52t54.5 21t49.5 -21t13.5 -52t-28.5 -52t-54.5 -21t-49.5 21t-13.5 52zM261 67q5 31 28 52t54 21t49.5 -21t13.5 -52t-28.5 -52t-54.5 -21t-49 21t-13 52zM445 67q5 31 28 52t54 21q32 0 50 -21t13 -52t-28 -52t-55 -21q-31 0 -49 21t-13 52z" />
    <glyph glyph-name="perthousand" unicode="&#x2030;" horiz-adv-x="1092" 
d="M398 523q-6 -43 -22 -77t-39 -57.5t-52 -36t-61 -12.5q-70 0 -102 47t-19 138q6 42 22 75t39 56.5t51.5 36t60.5 12.5q70 0 102 -47t20 -135zM155 -73l-82 59l594 748l83 -59zM309 523q7 51 -6 74t-42 23q-28 0 -45.5 -22.5t-25.5 -72.5q-8 -53 4 -75.5t41 -22.5
q30 0 48.5 23t25.5 73zM665 180q7 51 -6.5 74t-42.5 23q-28 0 -45.5 -22.5t-24.5 -72.5q-8 -53 3.5 -75.5t40.5 -22.5q30 0 49 23t26 73zM754 179q-6 -43 -22 -77t-39 -57.5t-52 -36t-61 -12.5q-70 0 -102 47t-19 138q6 42 21.5 75t38.5 56.5t51.5 36t60.5 12.5
q70 0 102.5 -47t20.5 -135zM997 180q7 51 -6.5 74t-42.5 23q-28 0 -45.5 -22.5t-24.5 -72.5q-8 -53 3.5 -75.5t40.5 -22.5q30 0 49 23t26 73zM1086 179q-6 -43 -22 -77t-39 -57.5t-52 -36t-61 -12.5q-70 0 -102 47t-19 138q6 42 21.5 75t38.5 56.5t51.5 36t60.5 12.5
q70 0 102.5 -47t20.5 -135z" />
    <glyph glyph-name="guilsinglleft" unicode="&#x2039;" horiz-adv-x="282" 
d="M57 291l179 220l87 -57l-135 -163l89 -164l-103 -56z" />
    <glyph glyph-name="guilsinglright" unicode="&#x203a;" horiz-adv-x="288" 
d="M303 291l-178 -220l-89 56l135 164l-87 163l103 57z" />
    <glyph glyph-name="Euro" unicode="&#x20ac;" horiz-adv-x="578" 
d="M131 494q8 55 34.5 97t65 70t84.5 42t92 14q35 0 68.5 -10t62.5 -29.5t51.5 -49.5t35.5 -69l-108 -51q-17 49 -52.5 72t-73.5 23q-25 0 -50 -7t-46 -20.5t-35 -34t-18 -47.5l-5 -37h246l-28 -81h-227l-6 -44h241l-28 -87h-228l-5 -33q-4 -27 4.5 -47.5t25.5 -34
t39.5 -20.5t47.5 -7q40 0 81.5 23.5t72.5 71.5l94 -49q-24 -40 -55.5 -69.5t-66 -49t-71 -29.5t-71.5 -10q-46 0 -88 13.5t-72 41.5t-45 69t-7 97l5 33h-67l30 87h49l6 44h-59l28 81h43z" />
    <glyph glyph-name="trademark" unicode="&#x2122;" horiz-adv-x="829" 
d="M524 290h-106l57 404h95l73 -203q25 42 45 73t36 55t28.5 42t21.5 33h92l-57 -404h-106l33 181l-85 -125h-53l-54 128zM270 290h-106l43 301h-103l14 103h313l-14 -103h-104z" />
    </font>
</defs>
</svg>
